<?xml version="1.0" standalone="no"?>
<!DOCTYPE svg PUBLIC "-//W3C//DTD SVG 1.1//EN" "http://www.w3.org/Graphics/SVG/1.1/DTD/svg11.dtd">
<svg xmlns="http://www.w3.org/2000/svg">
<metadata>Generated by Fontastic.me</metadata>
<defs>
<font id="nom" horiz-adv-x="512">
<font-face font-family="nom" units-per-em="512" ascent="480" descent="-32"/>
<missing-glyph horiz-adv-x="512" />

<glyph glyph-name="icon-1" unicode="&#97;" d="M240 511c0 0-1-1-3-1-4-1-15-2-19-3-3-1-19-6-22-7-10-4-25-13-35-20-7-5-18-15-23-21-1-2-3-4-4-5-2-2-8-9-10-13-9-14-16-29-21-45-4-15-5-26-6-50 0-16-1-33-3-42-2-15-2-18-5-30-2-11-7-27-11-36-7-19-12-27-21-42-2-4-5-8-5-8 0-1-4-7-9-15-12-21-14-25-12-33 1-5 3-7 6-11 6-6 9-7 33-7 25-1 372-1 382 0 12 1 17 2 22 7 4 4 5 8 6 14 1 6-2 14-16 35-4 8-10 18-13 22-14 24-24 51-31 82-1 4-1 9-3 22-2 8-3 26-3 42-1 26-3 40-8 56-14 43-46 78-88 96-5 2-7 3-15 6-12 3-17 5-27 6-3 0-5 1-6 1 0 1-30 1-30 0z m27-25c9-1 15-2 20-3 4-1 13-4 16-5 1 0 3-1 3-1 4-2 15-7 18-9 22-13 39-32 51-54 2-4 3-8 4-9 2-7 4-11 5-14 4-15 5-23 5-37 0-16 2-47 4-57 0-2 1-7 2-10 2-13 6-32 9-41 1-1 1-4 2-5 1-6 10-27 15-36 2-5 6-12 7-14 1-1 2-2 2-2 0-1 5-9 8-14 1-1 2-3 2-3 0-1 1-2 1-3 5-7 13-20 13-21l0-2-397 0 0 2c0 1 1 3 3 5 1 2 2 4 2 4 2 3 7 11 8 12 0 1 1 2 1 3 0 1 3 5 6 9 2 4 4 8 4 8 0 0 1 2 3 4 3 5 12 24 15 32 3 7 9 24 11 31 0 2 1 5 1 6 1 5 4 18 5 25 4 24 5 31 6 66 0 17 1 24 4 33 0 2 1 5 1 6 3 10 10 24 16 34 11 16 23 29 40 40 5 3 20 10 23 11 1 1 4 2 7 3 9 3 18 5 30 6 8 1 15 1 24 0z m-80-438c-4-1-8-7-8-11 0-3 1-7 3-9 2-2 10-8 14-11 14-9 26-13 45-16 4-1 26-1 29 0 1 0 4 0 7 1 10 2 22 6 33 12 6 3 16 11 19 14 2 2 3 6 3 8 0 3-2 8-4 10-4 2-9 3-13 2-1-1-3-3-5-4-18-14-41-22-62-20-18 2-31 8-45 19-3 2-6 4-7 4-2 1-6 2-9 1z"/>
<glyph glyph-name="icon-2" unicode="&#98;" d="M75 511c0 0-1-1-2-1-5-1-9-4-12-9l-1-4 0-22c0-17 0-23-1-23-1-1-9-1-23-1l-23 0-3-2c-5-2-8-6-9-12-2-7 2-15 9-18 3-2 4-2 26-2 17 0 23 0 23-1 1 0 1-10 1-22 0-23 0-25 3-29 1-2 3-4 5-5 4-2 4-2 8-2 4 0 6 0 8 1 3 2 6 5 8 9 2 2 2 2 2 25l0 24 23 0c23 0 24 0 26 2 3 1 7 5 9 8 1 2 1 4 1 7 0 4 0 5-2 8-2 4-4 6-9 8-3 1-3 1-25 1-12 0-22 0-22 1-1 0-1 6-1 23l0 23-2 3c-3 5-6 8-10 9-4 1-5 1-4 1 0 1-1 1-1 1-1 0-1 0-2-1z m200-25c-3 0-8-4-9-6-1-1-2-2-2-3-2-5-3-8-3-8 0-1-1-2-1-3-1 0-2-3-2-4-2-5-5-13-9-22-1-4-5-15-8-22 0-2-1-3-2-5 0-1-1-4-3-7-3-10-8-22-10-28-1-1-2-5-3-8-11-27-13-31-21-38-6-7-9-9-30-17-2-1-5-2-6-2-8-3-24-10-28-11-2-1-6-2-9-4-3-1-6-2-7-2-1-1-5-2-8-4-10-3-21-8-28-10-3-1-8-3-11-4-3-1-5-2-6-3-1 0-3-1-6-2-3-1-7-3-8-4-3-2-6-6-7-10-2-9 4-18 13-20 2-1 4-2 8-3 1-1 2-1 4-2 2-1 5-2 13-5 4-1 8-3 9-4 2 0 4-1 5-1 1-1 3-1 3-2 1 0 5-2 16-6 3-1 8-3 12-4 5-2 15-6 28-11 3-1 6-2 7-3 1 0 6-2 10-4 15-6 20-8 27-15 7-7 9-11 20-39 1-3 2-6 3-7 0-2 5-13 6-18 1-1 2-4 4-8 1-4 3-9 4-11 3-9 6-15 7-19 1-2 2-5 2-6 1-2 6-13 7-18 1-1 2-4 3-6 5-15 7-17 11-20 5-3 11-4 17-1 3 2 7 6 8 10 1 1 2 3 2 4 1 1 2 5 3 8 1 3 3 7 4 9 0 1 1 5 2 7 1 2 3 6 4 9 1 3 2 6 3 7 0 1 2 6 4 11 2 5 4 11 5 14 1 2 2 5 3 6 0 1 0 2 0 3 0 0 2 3 3 7 1 3 3 7 3 8 1 1 2 3 2 5 0 1 2 4 3 7 2 6 5 14 8 21 3 6 6 11 11 17 7 6 12 9 22 13 3 1 6 2 7 3 1 0 2 1 4 1 1 1 5 2 9 4 3 1 8 3 11 4 3 1 7 3 10 4 2 1 7 3 11 4 10 4 15 6 17 7 1 0 3 1 4 1 1 1 3 2 4 2 2 1 5 2 8 3 5 2 15 6 21 8 2 1 6 2 9 3 8 4 9 4 11 6 4 2 6 5 7 10 0 1 1 3 1 2 1 0 1 1 1 2 0 1 0 1-1 1 0 0-1 1-1 2-1 4-2 6-5 9-2 2-5 3-13 6-3 2-7 3-9 4-6 2-16 6-21 8-3 1-6 2-8 3-1 0-3 1-4 1-1 1-5 2-9 4-3 1-10 4-14 5-4 2-10 4-13 5-3 2-8 3-11 5-3 1-6 2-7 2-1 1-4 2-8 3-1 1-4 2-6 3-2 1-5 2-5 2-1 0-8 3-12 5-4 3-13 11-16 15-1 3-7 13-7 14 0 0-1 3-2 6-1 3-3 8-4 11-3 9-4 9-5 11 0 2-1 6-3 9-3 8-8 21-8 22-1 1-2 4-3 7-1 3-2 6-3 7 0 1-1 3-1 5-1 1-2 5-4 8-6 16-9 25-12 31-2 6-3 8-4 10-3 3-5 5-10 6-3 1-4 1-8 0z m7-71c1-2 3-6 3-8 3-8 6-17 7-18 1-2 2-4 5-14 1-1 2-3 2-4 0-1 1-3 2-4 5-16 13-33 15-38 9-16 21-28 37-37 4-2 19-8 36-14 2-1 6-3 9-4 2-1 5-2 6-2 3-1 6-3 9-4 4-1 16-6 18-7 1 0 4-1 7-3 3-1 6-2 6-3 0 0-3-1-6-3-3-1-6-2-7-3-4-1-17-6-25-9-4-2-11-4-20-8-1 0-3-1-5-2-21-8-26-10-34-15-11-6-22-17-29-29-1-3-2-5-6-14-1-1-3-5-4-8-1-3-3-7-3-9-1-1-2-4-2-6-1-2-3-6-4-10-2-3-3-7-3-8-2-5-3-7-5-11-1-2-2-6-3-9-1-3-2-6-3-7 0-1-1-2-1-2 0-1-4-11-5-11 0-1-1 0-2 2 0 2-1 4-1 5-1 1-2 4-3 6-1 3-2 7-4 10-2 7-4 11-6 18-2 3-3 6-3 7-2 5-6 16-9 22-3 9-8 20-9 23-1 1-2 2-2 3-2 3-8 11-13 16-11 11-21 17-44 25-2 1-5 2-6 3-1 0-3 1-4 1-2 1-4 2-5 2-1 0-5 2-8 3-3 1-8 3-11 4-3 2-9 4-12 5-3 1-7 3-8 3-2 1-3 1-4 1 0 0-1 1-2 1-1 1-3 2-5 2-5 2-5 3 1 5 1 0 3 1 4 2 1 0 5 1 8 3 3 1 7 2 9 3 9 3 17 7 23 9 4 2 10 4 14 5 4 2 7 3 8 4 7 2 14 5 20 8 15 7 28 20 36 35 3 5 8 17 9 20 1 2 6 15 7 16 0 1 1 4 2 6 1 3 2 7 3 8 2 6 5 14 7 20 2 3 3 7 4 10 1 2 2 5 2 5 1 0 1 2 2 5 2 5 3 4 5-2z m-213-264c-4-2-6-4-8-9-1-3-1-3-1-25 0-12 0-22-1-22 0-1-6-1-23-1l-23 0-3-2c-2-1-4-3-6-4-2-3-2-4-3-7-1-4-1-5 0-7 1-6 3-9 7-12 4-2 7-2 29-2 16 0 22 0 22-1 1 0 1-6 1-22 0-22 0-25 2-29 8-11 24-10 30 2 2 3 2 4 2 26 0 17 0 23 1 23 0 1 10 1 22 1 23 0 25 0 29 3 2 1 4 3 5 5 2 4 2 4 2 8 0 4 0 6-1 8-2 3-5 6-9 8-2 2-2 2-26 2l-23 0 0 23c0 23 0 24-2 26-1 3-5 7-8 9-2 1-4 1-7 1-5 0-5 0-8-2z"/>
<glyph glyph-name="icon-3" unicode="&#99;" d="M251 508c-4-1-9-5-11-9l-1-3-1-112 0-111-111-1-112 0-2-1c-4-2-8-5-9-8-2-4-2-11 0-15 2-3 4-6 8-8l3-1 112-1 111 0 0-111 1-112 1-2c2-4 5-8 8-9 4-2 11-2 15 0 3 2 6 5 8 8l1 3 0 112 1 111 111 0 112 1 2 1c4 2 7 5 9 8 2 4 2 11 0 15-2 3-5 6-8 8l-3 1-112 0-111 1-1 111 0 112-1 2c-2 4-5 7-8 9-3 1-9 2-12 1z"/>
<glyph glyph-name="icon-4" unicode="&#100;" d="M251 511c0 0-1-1-1-1-2-1-4-3-6-5 0-2-1-10-1-110 0-79 0-108 0-109-1 0-32 31-77 76-42 42-77 76-78 77-1 0-3 1-5 1-5 0-8-2-10-6-2-4-3-9-1-12 1-1 36-36 77-78 52-51 76-76 75-76 0 0-36-1-109-1l-108 0-2-2c-4-3-5-5-5-10 0-5 1-7 5-10l3-2 108 0c79 0 108 0 108 0 1-1-30-32-75-77-42-42-76-77-77-78-1-1-1-3-1-5 0-5 2-8 6-10 3-2 9-3 12-1 1 1 36 36 77 77 46 45 76 76 77 75 0 0 0-29 0-108 0-65 1-108 1-109 1-2 4-5 6-6 2-1 9-1 11 0 2 1 5 4 6 6 0 1 0 44 0 109 0 79 1 108 1 108 0 1 31-30 76-75 42-41 77-76 78-77 2-1 3-1 6-1 4 0 7 2 10 6 1 2 2 3 2 6 0 3-1 4-1 6-1 1-36 36-77 77-45 46-76 76-76 77 1 0 30 0 109 0 98 0 108 1 109 1 3 2 5 4 6 6 0 0 1 1 1 1 1 0 1 1 1 4 0 4 0 5-1 5 0 0-1 1-2 2 0 1-2 2-3 3l-3 2-108 0c-79 0-108 1-109 1 0 0 31 31 76 76 41 42 76 77 77 78 1 3 1 9-1 12-2 4-6 6-10 6-3 0-4-1-6-1-1-1-36-36-78-77-45-45-76-76-76-76 0 1-1 30-1 109 0 105 0 107-1 110-1 2-4 5-5 5-1 0-1 1-1 1 0 1-1 1-5 1-3 0-4 0-4-1z"/>
<glyph glyph-name="icon-5" unicode="&#101;" d="M246 510c-14-1-28-4-39-8-3-1-6-2-7-3-3 0-20-9-25-12-21-14-36-31-49-52-7-12-14-29-16-43-1-2-2-6-2-9-1-4-1-9-2-32 0-27 0-27-1-28-1 0-2-1-4-1-12-2-27-9-40-20-8-7-18-18-23-29-6-11-8-22-10-46-2-15-2-113 0-128 1-11 2-21 3-27 5-20 17-38 36-52 2-2 4-4 4-4 0 0 2 0 4-2 11-7 23-10 43-12 10-1 19-1 138-1 118 0 128 0 137 1 21 2 31 5 44 13 15 9 29 23 36 38 2 5 4 8 4 10 3 10 5 20 6 34 1 13 1 119 0 132-2 26-6 39-16 54-10 14-22 25-37 33-6 3-12 4-18 6-2 0-5 1-6 1l-1 1-1 28c0 22 0 28-1 31 0 2-1 6-2 9-3 20-15 45-29 62-11 13-22 24-36 33-5 3-22 12-25 12-1 1-4 2-7 3-16 6-39 9-58 8z m21-36c15-1 25-4 38-11 10-4 12-6 18-10 25-19 41-45 45-76 2-7 2-50 1-51 0 0-13-1-113-1-62 0-113 1-114 1-1 1-1 43 1 50 3 22 11 41 24 57 7 9 21 21 30 26 22 13 47 18 70 15z m121-184c21-2 31-6 43-18 8-8 12-16 14-25 3-11 3-15 3-84 0-68 0-71-2-82-1-5-4-12-5-14-1 0-1-1-1-1 0-2-9-12-14-16-11-9-21-12-45-14-15 0-236 0-251 0-17 1-26 3-34 6-15 8-27 23-30 38-3 11-3 14-3 84 0 60 0 67 1 74 2 12 4 19 10 27 10 13 22 21 36 23 7 1 11 2 29 2 26 1 240 0 249 0z m-139-84c-4-2-7-5-9-9l-2-3 0-62 2-3c7-13 24-13 31 0l2 3 0 62-2 3c-4 9-14 12-22 9z"/>
<glyph glyph-name="icon-6" unicode="&#102;" d="M250 511c0 0-1-1-2-1-3-1-244-242-246-246-2-3-2-4-2-9 0-5 0-5 2-8 2-4 243-244 246-246 2-1 3-1 8-1 4 0 5 0 8 2 7 4 10 13 7 21-1 3-5 7-106 108-59 59-105 106-105 106 0 1 11 1 218 1l219 0 3 2c4 1 8 4 9 7 1 2 2 3 2 3 1 0 1 2 1 5 0 5 0 6-1 6 0 0-1 1-2 3-1 3-4 5-8 7l-2 1-220 0c-177 1-220 1-220 2 0 0 48 48 106 106 101 101 105 105 106 108 1 2 1 5 1 6 0 6-3 12-8 15-2 1-3 2-3 2 0 1-1 1-6 1-4 0-5 0-5-1z"/>
<glyph glyph-name="icon-7" unicode="&#103;" d="M251 511c0 0-1-1-2-1-3-1-8-5-10-9-4-5-4-13-1-19 1-2 36-38 103-104 80-80 101-101 100-102 0 0-46-1-212-1-223 0-214 0-219-2-1-1-3-2-4-4-9-9-7-24 4-31 2-1 4-1 7-2 2 0 62 0 214 0 154 0 211-1 211-1 0-1-41-42-101-102-68-68-102-102-103-104-3-6-3-13 0-19 6-10 18-13 28-7 1 1 56 56 122 122 98 98 120 120 121 122 0 1 1 3 1 4 1 1 1 1 1 1 1 0 1 1 1 3 0 4 0 4-1 4 0 0-1 1-1 3-1 1-2 3-2 4-1 1-56 56-122 122-101 101-120 120-122 121-2 1-4 1-4 1 0 0-1 1-1 1 0 1 0 1-4 1-3 0-4 0-4-1z"/>
<glyph glyph-name="icon-8" unicode="&#104;" d="M476 438c-2 0-5-1-7-2-3-1-11-9-151-149-81-81-147-147-147-147-1 0-29 28-63 62-39 39-63 62-65 63-11 7-26 5-34-5-10-10-11-24-3-35 1-2 34-36 74-76 79-78 75-74 84-77 6-2 11-2 19 2 4 2 13 11 162 160 96 95 159 159 161 161 7 12 5 26-4 36-5 4-10 7-16 8-4 0-5 0-10-1z"/>
<glyph glyph-name="icon-9" unicode="&#105;" d="M224 511c0 0-2-1-4-1-9-1-19-2-23-3-2 0-5-1-8-2-5-1-11-2-15-4-2 0-4-1-6-1-7-2-26-10-34-14-6-3-11-6-14-7-1-1-2-2-2-2 0 0-1 0-2-1-1 0-4-3-7-5-16-10-27-19-40-33-16-16-24-26-38-49 0 0-1-3-3-5-1-3-2-6-3-7-2-2-6-11-9-19-5-13-8-23-11-36 0-2-1-6-1-8-1-3-2-9-3-22-1-6-1-41 0-47 2-18 2-18 5-32 2-8 6-22 8-28 0 0 2-4 3-8 3-6 10-22 15-29 6-11 14-22 24-34 6-8 26-28 34-35 13-9 31-21 44-27 26-13 52-21 83-24 10-2 40-2 50 0 26 3 47 8 70 18 5 2 17 8 21 10 1 0 3 1 4 2 1 1 3 2 5 3 1 1 2 2 2 2 2 0 28 18 30 21 1 1 2 2 2 2 1 0 20-19 43-42 33-33 42-42 44-43 4-1 10-1 13 0 4 2 7 5 9 9 0 1 1 3 1 3 2 0 1 5 0 6-1 1-1 2-1 2 0 1-1 2-2 3 0 1-19 21-42 43-23 23-41 42-41 42 0 1 1 2 1 3 1 0 5 4 8 9 10 13 16 23 24 37 4 9 5 11 9 19 5 14 10 31 13 45 6 30 6 64 0 94-1 6-4 18-5 21-5 14-7 21-9 24 0 1-1 3-1 4-2 4-10 20-13 25-15 27-40 54-64 73-23 17-50 30-74 37-2 1-4 2-5 2 0 0-3 1-6 1-3 1-6 2-8 2-2 1-4 1-4 1-1 0-3 1-3 1-2 1-16 2-22 3-5 0-7 1-6 1 0 1-8 1-18 1-14 0-18 0-18-1z m39-33c9-1 18-2 22-3 10-3 15-4 22-6 4-1 8-3 8-3 1 0 1-1 2-1 2 0 22-9 33-15 15-10 26-18 38-30 12-11 22-24 30-36 3-4 12-19 12-20 0 0 1-3 2-6 4-8 4-8 6-13 5-13 9-27 11-40 3-17 3-17 3-36 0-16 0-20-1-25-1-4-1-9-2-12-1-7-4-21-7-27-1-5-4-13-5-14 0-1-1-3-1-4-3-7-12-24-15-29-9-14-18-25-29-37-8-8-20-18-27-23-14-10-32-20-47-25-21-8-43-13-66-14-21-2-46 1-66 7-5 1-17 5-20 6-1 1-2 1-2 1-1 1-3 2-5 2-4 2-18 9-23 12-16 9-34 24-47 37-22 23-37 49-47 80-2 6-3 9-6 20-1 5-2 13-3 22-2 10-2 35 0 46 1 8 3 19 3 23 1 1 1 4 2 7 5 20 16 45 28 63 2 2 3 4 3 4 0 1 2 3 4 6 15 19 32 35 51 48 11 7 15 9 26 15 13 6 28 12 40 15 3 0 6 1 7 1 15 4 48 6 66 4z"/>
<glyph glyph-name="icon-10" unicode="&#106;" d="M187 511c0 0-3-1-8-1-3 0-12-2-17-3-13-3-17-4-23-6-9-3-16-6-23-9-3-2-6-3-6-3-1 0-16-9-22-13-19-13-39-33-52-52-14-19-25-43-30-64-3-14-4-20-5-34-2-16 0-42 3-56 2-10 4-18 5-20 0-1 1-4 2-7 2-8 9-23 15-32 1-3 2-5 3-6 6-11 18-26 28-37 17-17 39-33 62-43 10-5 11-5 29-10 2-1 6-2 14-4 16-3 37-4 55-3 10 1 18 2 32 5 6 2 19 5 24 8 2 1 4 1 5 1 2 0 21 10 30 16 7 4 20 14 23 17 1 1 3 1 3 1 1 0 29-27 78-76 84-84 79-80 86-80 2 0 3 0 3 1 1 0 1 0 2 0 1 0 5 4 7 7 0 1 1 2 1 2 1 0 1 2 1 3 0 3 0 3-1 3 0 0-1 1-1 2 0 2-15 17-78 80-54 54-78 78-78 79 0 0 1 1 1 2 2 1 9 11 13 16 10 14 20 34 25 50 0 1 1 3 1 4 1 1 1 3 1 4 1 1 2 4 2 7 4 16 6 32 6 49 0 23-3 44-11 66-1 3-1 4-3 8-3 9-9 22-14 30-4 6-15 21-17 23 0 1-2 3-5 6-5 7-15 17-18 19-2 1-3 2-3 2 0 0-7 6-11 9-16 12-37 23-56 29-15 5-31 8-44 9-5 0-6 1-6 1 1 1-5 1-14 1-10 0-14 0-14-1z m35-28c10-1 22-4 25-5 1 0 5-1 8-2 5-2 7-2 15-6 6-2 20-9 21-11 1 0 1 0 2 0 1 0 16-11 23-17 14-12 24-24 36-43 1-2 6-11 10-20 3-5 7-19 10-30 1-3 3-14 4-22 1-7 1-28 0-36-1-7-3-18-4-21-2-9-7-24-10-30 0-1-2-4-3-7-3-7-6-12-12-21-17-24-40-45-65-58-15-8-24-11-42-15-4-1-11-2-21-4-14-2-39 0-55 4-11 2-24 6-31 10-30 13-50 29-70 54-2 2-10 14-11 15 0 1-1 3-2 5-2 3-9 17-10 20-1 1-2 4-2 5-1 2-2 5-3 8-1 3-2 7-2 8-2 4-4 20-5 28-3 19 0 44 5 64 1 5 4 13 5 15 0 1 1 2 2 4 0 1 2 5 3 8 1 3 3 5 3 5 0 1 10 19 15 25 9 12 17 20 30 32 8 6 21 15 30 20 3 1 6 3 8 3 1 1 3 2 6 3 2 1 4 2 5 2 1 0 3 1 5 2 2 0 4 1 5 1 6 2 9 3 13 4 18 4 24 4 41 4 7 0 16-1 18-1z"/>
<glyph glyph-name="icon-11" unicode="&#107;" d="M124 508c-10 0-23-2-29-3-23-6-45-24-57-47-3-7-4-10-7-23 0-2-1-7-1-11-1-5-1-12-2-16 0-6 0-50 0-201l0-193 1-3c3-6 9-10 14-9 3 0 6 2 12 6 2 2 8 6 13 10 4 3 10 7 11 8 6 4 21 15 28 20 4 3 7 5 8 5 0 0 3-2 6-4 3-2 6-5 8-7 4-2 11-8 13-10 2-1 22-18 27-22 11-8 14-8 24-2 2 2 5 4 6 5 0 0 5 4 10 7 4 3 11 8 15 11 8 6 22 16 27 20 2 1 4 2 4 2 1 0 3-1 4-2 5-3 21-15 29-21 4-3 8-5 9-6 8-6 24-18 27-19 5-2 9-2 14 3 3 2 18 13 23 18 23 19 34 27 35 27 1 0 5-3 9-6 12-9 20-14 23-16 2-2 6-5 23-17 11-8 15-10 18-10 5 0 10 3 12 8l2 3 0 194c0 114 0 197-1 201-1 20-2 25-4 35-5 20-21 41-42 53-14 8-26 11-52 13-13 0-247 0-260-1z m271-27c16-2 26-6 36-14 6-4 12-12 15-16 0-2 1-3 1-3 2-2 4-8 5-12 0-2 1-7 2-12 1-8 1-10 2-195 0-167 0-186-1-186-1 0-3 1-6 3-5 4-21 16-27 20-1 0-5 4-10 7-11 8-12 9-16 9-6 0-5 0-22-13-2-2-10-8-17-14-7-6-14-11-15-12-8-7-11-9-12-10-2-1-2-1-13 7-10 8-23 17-25 19-2 1-4 2-6 4-2 1-6 4-9 6-3 2-6 5-8 6-9 7-9 7-13 7-5 0-6-1-12-5-3-3-20-15-35-26-5-3-12-9-16-11-10-8-10-8-12-7 0 0-4 3-8 6-6 5-32 26-44 36-8 6-9 7-14 7-5 0-4 0-19-11-6-4-15-11-20-14-5-4-11-9-14-11-3-2-5-3-6-3-1 0-1 19-1 186l1 187 1 8c1 12 3 17 7 24 7 14 22 27 35 30 2 0 5 1 6 2 2 0 16 2 23 2 2 0 61 0 132 0 112 0 129 0 135-1z"/>
<glyph glyph-name="icon-12" unicode="&#108;" d="M241 507c-9-1-15-3-20-5-5-2-12-5-14-6-1-1-3-2-3-2-3-1-10-6-16-11-14-11-27-16-44-19-15-1-25-4-35-8-26-11-47-34-56-61-4-9-5-14-7-29 0-4-1-9-2-11-3-13-9-24-18-34-2-2-6-8-8-12-1 0-2-4-4-8-5-10-7-16-10-32-2-9-1-26 2-38 2-8 6-19 9-24 1-1 1-3 2-3 1-3 7-11 12-17 5-7 9-14 12-22 2-3 3-7 3-7 0 0 0-2 1-3 0-2 1-6 1-11 2-18 5-26 11-40 2-2 3-6 4-7 1-1 2-2 2-2 0-1 3-6 6-10 5-5 13-13 19-18 3-2 6-4 7-4 0 0 1-1 2-2 9-6 30-13 43-14 20-2 35-8 50-21 2-2 8-6 12-8 0-1 4-2 8-4 14-7 30-11 46-11 15 0 33 4 47 11 5 3 15 9 17 12 8 7 18 12 30 17 4 2 13 3 21 4 23 2 47 13 64 31 3 3 13 16 13 17 0 0 1 1 2 3 6 9 13 28 14 42 1 13 3 20 8 30 3 7 5 11 11 18 9 11 16 23 20 34 7 23 7 43 0 64-2 7-5 15-7 18-1 1-2 3-2 3 0 0-8 12-9 14-8 9-14 19-18 31-1 5-2 8-3 17-1 9-3 17-5 24-2 7-7 17-9 21-1 1-2 2-2 2 0 0-2 3-4 7-15 19-34 31-57 38-4 1-11 2-21 4-4 0-9 1-11 2-13 3-24 9-34 18-2 2-8 6-12 8 0 0-4 2-8 4-9 5-17 7-32 10-5 1-22 1-28 0z m27-24c7-1 12-3 19-6 7-3 13-6 21-13 14-11 28-18 44-22 6-1 15-2 18-2 3 0 14-3 18-5 12-4 20-9 29-18 7-8 11-13 15-21 4-9 8-20 8-26 0-7 5-29 8-35 6-13 9-18 16-27 7-8 9-12 12-19 10-20 10-44 1-65-3-8-6-12-14-23-13-15-20-33-22-53-3-18-4-22-9-33-4-9-8-14-15-21-8-7-13-11-21-15-9-5-20-8-26-8-7 0-29-5-35-8 0 0-3-1-5-2-7-3-15-9-21-14-8-6-13-9-20-12-20-10-44-10-65-1-7 3-13 6-21 13-8 6-13 9-21 13-12 6-21 9-34 10-18 2-22 4-33 9-9 4-14 8-21 15-7 7-10 11-14 19-5 9-8 20-9 30-1 5-2 11-3 17-1 4-4 14-5 16-6 13-9 17-16 27-7 8-9 11-12 19-10 20-10 44-1 65 3 7 6 13 13 21 11 15 18 28 21 44 2 6 3 15 3 18 0 3 2 12 4 18 2 5 3 8 7 13 3 6 5 9 10 13 13 15 31 24 49 26 8 1 13 1 19 3 4 1 14 4 16 5 12 6 19 10 28 17 7 5 11 8 18 11 7 4 15 6 23 7 3 0 6 1 6 1 2 0 12 0 17-1z m80-120c-1 0-33-32-101-99l-99-99 0-3c-1-2-1-4 0-5 0-3 0-4 3-6 4-4 8-5 13-3 2 1 33 33 101 100l98 98 0 3c1 5 0 8-3 11-4 3-7 4-12 3z m-170-12c-7-1-14-7-17-13-1-4-1-5-1-10 0-4 0-6 1-9 3-9 12-15 22-15 9 0 18 5 22 12 5 10 3 21-5 29-3 3-5 4-8 5-4 1-10 2-14 1z m145-144c-14-3-22-17-19-30 2-6 6-11 11-14 9-6 21-4 29 3 10 10 10 26 0 35-2 1-4 3-5 4-4 2-11 3-16 2z"/>
<glyph glyph-name="icon-13" unicode="&#109;" d="M251 510c-3-1-10-3-13-4-5-3-9-5-28-20-5-4-10-8-11-9-1-1-4-3-7-6-3-2-9-6-13-9-4-3-8-6-9-7-7-6-16-13-24-19-4-3-6-5-7-5 0-1-4-4-8-7-5-4-12-10-17-13-5-4-12-9-15-12-3-2-7-5-8-6-2-1-6-5-9-7-11-8-29-22-41-32-16-13-23-22-28-38-1-1-2-6-2-10-1-7-1-10-1-120 0-67 0-114 0-117 1-3 1-8 1-11 1-8 3-14 6-21 4-8 12-17 20-24 5-3 14-8 19-9 4-1 9-2 20-3 6-1 353-1 359 0 16 2 24 4 31 7 9 6 17 13 23 22 5 7 8 13 10 22 2 11 2 12 2 131 0 105 0 115-1 122-1 12-4 20-11 30-4 7-12 14-34 31-3 2-8 6-12 9-3 3-9 7-12 9-3 3-8 6-10 8-2 2-6 5-9 7-3 2-9 7-13 11-11 8-13 10-21 16-3 2-6 4-7 5 0 0-2 2-5 4-6 5-9 7-16 13-4 2-7 5-8 6-1 0-4 3-7 5-4 3-7 6-8 6-1 1-6 5-10 8-5 4-13 10-19 15-7 5-12 9-13 10-9 7-19 12-28 12-2 0-5 0-6 0z m9-32c1 0 2-2 3-2 3-2 40-31 43-34 2-1 5-4 8-5 5-4 16-13 24-20 4-2 9-6 11-8 3-2 9-6 13-10 5-4 13-10 17-13 4-3 10-8 14-11 12-10 34-26 44-34 4-3 10-8 13-10 3-3 6-5 7-6 2-1 8-8 9-12 1-2 3-5 3-8 1-4 1-10 1-120 0-107 0-117-1-123-1-8-2-11-6-16-5-6-11-11-18-13-7-2-21-2-196-2-167 1-176 1-181 2-6 1-11 3-15 7-5 5-8 10-10 15-2 8-2 10-2 131 0 109 0 116 1 120 2 10 7 16 27 31 7 5 16 12 20 16 5 3 12 9 16 12 4 3 10 8 14 11 4 3 10 7 13 10 3 3 9 7 12 9 3 2 9 7 12 10 4 3 10 8 14 11 11 8 34 26 36 27 1 1 4 3 6 6 11 8 34 25 37 28 3 2 4 2 6 2 2 0 4 0 5-1z m-112-345c-4-2-8-6-9-10-2-4-2-6 0-10 1-3 3-6 6-8l3-2 215 0 3 3c9 6 9 18 0 24l-3 3-106 0c-59 0-108 0-109 0z"/>
<glyph glyph-name="icon-14" unicode="&#110;" d="M165 511c0 0-1-1-3-1-6-1-16-5-21-9-11-7-19-17-24-30-3-7-6-15-7-18-1-1-2-5-4-8-1-4-3-7-3-8-1-1-1-2-1-2 0-1-4-8-5-11-5-7-10-11-25-17-3-1-7-3-9-3-2-1-4-2-5-3-2-1-13-5-18-7-19-8-32-22-38-40-2-6-2-9-2-18 0-13 1-17 8-34 2-4 3-7 3-7 0-1 1-2 2-4 1-2 2-6 3-7 1-2 2-4 2-4 0-1 0-1 0-2 0 0 1-2 2-4 4-10 5-18 4-26-1-3-5-15-7-18 0-1-2-4-3-7-1-4-4-10-6-15-8-18-8-20-8-33 0-11 1-17 5-26 5-11 15-22 26-28 4-2 33-14 41-17 1-1 3-1 3-2 0 0 1 0 1 0 2 0 10-5 13-7 6-5 9-9 13-19 2-5 8-19 12-29 6-15 9-20 15-26 8-10 20-17 33-20 5-1 21-1 25 0 6 1 10 2 15 4 6 3 14 6 14 6 1 0 2 1 4 2 5 2 12 5 13 5 0 0 2 1 4 2 7 3 12 4 18 4 3 0 6 0 7 0 5-1 8-2 12-4 1-1 3-1 3-1 0 0 1-1 3-1 1-1 5-3 8-4 4-1 11-4 15-6 13-5 14-6 21-7 4-1 20-1 24 0 13 2 23 8 32 17 6 7 9 11 15 24 1 4 3 9 4 10 1 2 1 3 1 4 0 0 4 9 6 14 1 1 2 3 2 5 7 15 12 21 27 27 2 1 5 2 6 2 1 1 4 2 8 4 31 12 32 13 40 19 4 4 11 12 14 16 3 6 6 14 7 19 0 1 1 3 1 3 1 0 1 20 0 20 0 0-1 1-1 3-1 2-1 5-2 7-1 2-1 4-2 5 0 1 0 2-1 2-1 2-6 14-6 14 0 1 0 2-1 4-2 5-5 12-5 13 0 0-1 2-2 4-6 13-6 23 0 37 0 1 1 3 1 3 0 0 2 4 4 9 4 10 10 24 11 27 1 3 3 8 3 10 0 1 1 3 1 3 1 0 1 20 0 20 0 0-1 1-1 3-1 5-4 12-7 19-7 12-18 20-32 26-7 3-15 6-18 7-1 1-5 2-8 4-4 1-7 3-8 3-1 1-2 1-2 1-1 0-8 4-11 5-3 2-7 6-9 9-2 3-4 6-6 12-1 2-2 5-3 6 0 1-1 4-3 8-11 27-12 29-16 35-3 5-11 13-16 16-7 5-16 9-22 10-2 0-3 1-3 1 0 1-2 1-10 1-8 0-10 0-10-1 0 0-2-1-3-1-3-1-9-2-14-5-6-2-14-6-14-6-1 0-2 0-4-1-2-1-5-2-7-3-1 0-3-1-4-1-16-8-22-9-32-7-3 1-15 5-18 7-1 0-4 1-8 3-3 1-10 4-14 6-13 5-16 6-20 7-2 0-3 1-3 1 0 1-2 1-10 1-8 0-10 0-10-1z m18-25c3-1 5-1 8-3 1 0 5-2 9-3 3-2 7-3 8-4 1 0 5-1 8-3 4-1 8-3 8-3 4-2 11-5 14-5 2-1 4-2 5-2 1 0 6-1 10-1 8 0 15 1 21 3 2 0 13 5 16 6 1 1 5 2 9 4 3 1 8 3 11 4 15 7 19 8 26 8 11 0 23-6 30-15 3-4 4-8 15-34 1-3 3-7 3-8 1-1 2-4 3-6 6-14 14-24 24-30 6-4 7-5 13-7 3-1 5-2 6-3 1 0 3-1 5-1 1-1 4-2 6-3 2-1 4-2 4-2 0 0 16-6 20-8 16-8 25-25 21-42 0-2-1-5-2-7-1-2-3-6-4-10-2-3-3-7-4-8 0-1-2-5-3-9-2-4-3-8-4-9 0-1-1-2-1-3-1-1-1-3-2-3 0-1-2-8-3-13-1-5-1-16 0-22 1-6 3-10 5-16 2-5 4-9 16-38 1-2 2-5 2-8 4-16-5-34-21-41-4-2-16-7-27-11-3-1-7-3-8-3-1-1-3-2-4-2-17-7-27-15-34-29-3-3-4-7-12-26-11-26-11-27-14-31-4-5-8-9-14-11-10-5-21-5-33 0-1 0-4 2-8 3-3 1-7 3-8 3-1 1-5 2-8 4-4 1-8 3-9 3-3 2-10 4-13 5-2 1-4 1-5 2-2 0-6 1-11 1-10 0-17-1-29-6-5-2-9-4-38-16-17-7-36-1-46 14-2 2-3 5-4 6 0 1-2 6-4 11-2 4-5 11-6 15-1 3-3 7-3 7-1 1-2 4-2 5-5 11-8 17-15 23-6 7-13 12-23 16-3 1-6 2-7 3 0 0-5 2-10 4-26 11-27 11-31 14-5 4-9 8-11 13-5 11-5 22 0 34 0 1 2 4 3 8 1 3 3 7 3 8 1 1 2 4 4 8 1 3 3 9 5 12 1 4 3 8 3 10 1 2 1 4 2 5 0 1 1 6 1 10 0 7 0 9-1 14-2 6-2 8-5 15-1 3-4 10-6 15-2 4-5 11-6 14-2 4-3 8-4 10-8 20 1 42 21 50 1 1 3 1 4 2 1 0 10 4 18 7 2 1 6 2 8 3 3 1 7 3 9 4 9 4 17 9 23 15 6 7 10 13 14 22 1 3 2 5 3 6 0 1 1 3 1 5 1 1 2 4 3 6 1 2 3 7 5 12 7 16 8 19 15 25 3 3 10 7 15 8 5 1 12 1 17 0z m153-158c-2-1-14-13-53-52-28-28-52-51-52-51 0 0-10 9-21 20-11 11-21 21-22 21-3 1-8 2-10 1-2-1-6-4-7-7-1-3-1-7 0-9 2-4 53-54 56-56 2-1 5-1 8 0 2 1 10 8 59 57 34 34 56 57 57 59 3 4 2 11-2 15-5 3-9 4-13 2z"/>
<glyph glyph-name="icon-15" unicode="&#111;" d="M17 391c-4-2-9-5-11-8-2-3-4-9-4-11 0-1 1-5 3-9 1-3 237-239 241-241 3-2 7-3 9-3 3 0 9 2 11 3 1 1 55 55 120 120l119 118 2 6c2 5 3 7 1 11-1 1-1 3-2 4-3 5-8 9-14 10-3 1-4 1-7 0-2 0-5-2-6-2-1-1-52-51-112-112-71-70-111-110-112-110 0 0-41 40-111 111-102 102-111 110-114 112-5 2-9 2-13 1z"/>
<glyph glyph-name="icon-16" unicode="&#112;" d="M316 511c0 0-1-1-7-1-11-1-28-4-38-8-4-1-7-2-8-3-1 0-2 0-3-1 0 0-1 0-1 0-2 0-22-10-27-14-2-1-3-2-3-2 0 0-8-5-13-8-14-11-28-26-39-41-7-11-15-25-19-35-1-2-2-4-2-5-1-1-4-10-5-15-1-1-2-5-2-8-1-3-2-6-2-6 0 0-3-1-6-2-6-1-14-4-18-5-17-6-27-12-42-21-9-6-17-13-26-22-9-9-11-11-16-17-4-5-11-15-11-15 0 0 0-1-1-3-4-5-11-19-14-28-14-34-17-69-9-106 1-5 1-6 4-14 3-12 10-29 17-40 3-5 5-8 9-13 16-24 41-45 67-59 14-6 31-12 45-15 3-1 6-1 8-2 13-2 41-3 58 0 8 1 20 4 25 6 2 0 5 1 7 2 12 4 27 12 35 17 2 1 3 1 3 1 0 0 8 6 12 9 11 8 23 20 31 29 2 2 4 5 4 6 8 9 19 29 24 41 1 2 2 4 2 5 2 4 6 17 7 22 1 4 2 7 2 7 0 0 3 1 6 2 6 1 16 4 20 6 2 0 4 1 5 1 2 1 13 6 17 9 27 14 49 33 67 59 2 2 3 5 3 5 0 0 1 1 2 3 3 5 12 22 14 27 0 1 1 4 2 7 3 8 5 15 7 22 2 10 2 13 3 19 0 8 1 9 1 9 1 0 1 4 1 11 0 9 0 12-1 12 0 0-1 1-1 5-1 10-3 22-5 31-1 3-2 6-2 6-3 10-10 26-17 39-2 4-11 17-14 21-17 21-37 38-62 50-19 10-44 17-65 19-5 0-7 1-7 1 0 1-4 1-11 1-6 0-11 0-11-1z m29-33c11-2 15-2 26-6 6-1 15-5 20-7 6-3 7-3 14-8 20-12 40-31 52-51 8-13 13-26 17-41 4-16 6-37 4-54-1-12-3-18-6-30-10-30-29-56-55-76-13-10-31-19-46-23-4-1-4-1-4 11 0 6-1 13-1 16-2 10-3 13-6 27-3 9-11 28-16 36 0 2-1 3-2 4 0 1-5 9-9 15-21 28-49 50-82 63-6 3-12 5-15 6-10 2-13 3-16 4-9 2-17 2-27 3-6 0-10 0-11 1-1 1-1 1 1 7 14 42 45 75 86 92 23 10 50 14 76 11z m-146-144c16-1 33-6 45-11 7-4 11-6 14-7 2-1 3-2 4-2 0-1 3-3 7-5 12-8 23-19 33-30 4-5 11-16 11-17 0 0 1-1 2-3 2-3 7-13 9-18 2-3 6-17 7-22 4-15 5-38 4-51-3-18-6-31-12-45-11-25-31-49-55-65-7-5-8-6-17-10-6-3-8-4-15-7-14-5-36-9-52-9-22 0-45 5-63 14-2 0-4 1-4 1-1 0-11 6-17 10-33 22-57 57-65 96-2 8-3 23-3 31 0 11 2 27 4 35 1 2 1 5 2 7 9 31 28 59 56 80 15 11 36 21 53 25 12 3 19 4 30 4 10 0 14 0 22-1z"/>
<glyph glyph-name="icon-17" unicode="&#113;" d="M159 511c0 0-1-1-3-1-6-2-11-8-12-13 0-2 0-10 0-19 0-11 0-15-1-15 0 0-9-1-19-1-23-1-34-2-42-5-2-1-4-2-4-2-2 0-11-5-15-7-16-11-29-28-34-46-1-4-2-11-3-19-1-7-1-21-1-139-1-152 0-162 3-178 6-25 25-48 50-58 8-4 20-6 37-7 13-1 255-1 271 0 28 1 41 3 53 10 17 8 32 24 39 41 4 8 6 16 7 28 1 9 1 19 1 152 0 132 0 143-1 151-2 17-5 28-12 38-7 12-18 23-30 29-14 9-25 11-56 12-10 0-19 1-19 1-1 0-1 5-1 18l0 18-2 3c-2 3-5 6-9 7-2 1-4 2-4 2 0 1 0 1-1 1-1 0-1 0-1-1 0 0-2-1-4-2-4-1-7-4-9-7l-2-3 0-17c0-9 0-18 0-18l0-1-80 0c-71 0-79 0-79 0 0 1 0 8 0 17 0 9 0 17-1 18-1 5-6 10-11 12-1 0-3 1-3 1 0 1-2 1-2 0z m-16-81c1 0 1-5 1-18 0-17 0-18 2-20 1-3 4-6 7-8 3-1 11-1 14 0 2 2 6 5 7 8 1 2 2 3 2 20 0 11 0 17 0 18 1 0 17 1 79 1 63 0 79-1 79-1 1-1 1-7 1-18 0-20 0-19 5-24 3-4 5-5 11-5 4 0 5 0 7 2 4 2 5 4 7 7l2 3 0 17 0 18 2 0c2 1 36 0 42-2 11-2 19-6 26-13 9-8 13-16 15-28 2-11 4-66 2-67-1-1-396-1-397 0-2 1 0 55 1 66 1 6 2 10 5 15 7 13 20 24 35 27 7 2 43 3 45 2z m311-144c1-1 0-189 0-200-2-18-6-27-17-37-6-7-15-12-21-13-8-2-13-3-23-3-16-1-259-1-274 0-18 1-25 2-33 6-5 3-7 4-12 10-6 4-8 8-11 13-4 8-5 15-6 35-1 22-1 189 0 190 1 0 45 0 198 0 171 0 198 0 199-1z"/>
<glyph glyph-name="icon-18" unicode="&#114;" d="M243 511c0 0-2-1-7-1-15-1-31-4-50-9-6-1-15-4-21-7-2 0-4-1-5-2-8-3-20-9-30-14-30-17-57-41-78-68-5-7-14-20-16-24 0-1-1-2-2-3-2-2-13-25-16-32 0-1-1-3-2-5-1-4-4-14-5-18-1-2-2-5-2-6-2-8-5-19-6-31-3-19-3-53 0-72 2-14 4-23 6-30 0-2 1-4 2-6 0-3 4-14 5-16 1-4 3-7 4-10 1-2 2-4 2-4 0-1 6-14 9-20 21-38 51-69 87-93 4-2 8-5 8-5 0 0 1 0 1-1 2-1 26-13 33-16 1 0 3-1 5-2 4-1 14-4 18-5 2-1 4-2 6-2 12-4 30-7 43-8 31-2 64 0 90 8 1 0 4 1 6 2 3 0 14 4 16 5 4 1 7 3 10 4 1 0 3 1 3 1 1 0 14 7 20 10 33 18 61 42 82 71 6 7 14 18 16 23 0 1 1 2 2 2 1 3 13 26 15 33 1 1 2 3 2 5 2 4 5 14 6 18 1 2 2 4 2 6 1 2 2 7 3 14 1 2 2 6 2 9 1 3 1 8 2 9 0 2 0 7 1 12 0 9 1 11 1 10 1 0 1 5 1 12 0 10 0 13-1 13 0 1-1 3-1 10-1 4-1 11-2 13-2 12-2 17-3 18 0 2-1 4-1 6-1 3-2 6-2 7 0 1-1 4-2 6-1 4-4 14-6 18 0 2-1 4-2 5-8 23-26 52-44 72-18 21-41 40-62 52-14 8-25 14-35 17-3 2-6 3-7 3-2 1-15 5-18 6-21 6-35 8-51 9-6 0-8 1-7 1 0 1-5 1-12 1-11 0-13 0-13-1z m-25-36c0 0-2-3-4-7-3-3-5-6-5-6 0 0 0-1-1-2-1-2-11-16-11-17 0 0-1-2-2-4-4-6-6-11-11-21-7-14-12-24-17-38-1-4-2-7-3-9 0-1-1-4-2-7-1-4-2-7-3-8 0-2-2-7-3-10 0-1-1-5-1-8-4-14-8-36-10-54 0-6-1-11-1-11l0-2-55 0c-51 0-55 0-56 1 0 1 1 14 2 19 1 6 3 15 4 19 0 2 1 5 1 7 3 12 13 36 20 47 1 2 2 4 3 4 0 1 1 2 1 3 1 1 2 3 3 5 16 26 42 51 68 67 2 2 4 3 5 4 1 0 2 1 2 1 1 0 3 2 5 3 15 9 39 18 58 22 2 1 5 1 7 2 3 1 5 1 6 0z m83-1c6-1 17-4 21-5 1 0 5-2 8-3 3-1 6-2 7-2 6-2 25-12 31-16 1 0 3-1 3-1 2-1 7-5 14-10 21-14 45-39 58-61 2-2 3-4 4-5 0-1 1-2 1-2 0-1 2-3 3-5 8-15 18-39 22-57 1-5 2-11 3-16 1-5 2-18 2-19-1-1-6-1-56-1l-55 0 0 2c0 0-1 5-1 11-1 5-2 12-2 16-2 9-3 19-4 22-1 7-3 12-4 20-2 4-3 9-3 10-1 2-5 17-6 19-1 2-3 7-5 13-2 5-4 10-4 11 0 0-1 0-1 1 0 2-15 32-21 43-1 2-3 4-3 5 0 0 0 1-1 3-1 1-4 5-6 9-2 3-6 8-9 12-2 3-4 7-4 7 0 1 1 1 8-1z m-42-8c6-8 17-23 20-28 0 0 2-2 3-4 1-2 2-4 2-4 0 0 1-2 3-4 5-9 15-28 20-39 2-5 4-10 4-11 4-9 12-34 15-47 0-2 1-6 1-8 1-2 2-5 2-6 0-2 1-4 1-6 1-6 3-23 4-33 0-1 0-3 0-4-1-1-6-1-79-1-73 0-78 0-78 1-1 2 1 20 3 30 0 2 1 6 1 9 1 2 1 6 2 8 0 2 1 4 1 5 2 13 11 42 16 53 1 1 2 4 4 8 5 13 13 29 21 43 10 17 28 41 30 41 1 0 3-1 4-3z m-115-228c0 0 1-6 1-11 1-12 3-24 6-38 1-6 1-8 4-16 0-3 1-7 1-7 1-2 3-9 5-18 1-3 5-15 8-22 1-2 2-6 3-7 0-1 1-2 1-3 0 0 1-1 1-1 0 0 0-3 2-5 1-3 3-6 3-8 2-3 9-17 11-22 1-1 2-3 2-3 2-5 15-25 23-37 4-5 4-5-4-4-3 1-8 2-10 3-3 0-5 1-7 2-11 2-36 12-48 19-1 1-3 2-3 3-1 0-2 1-3 1-1 1-3 2-5 3-26 17-52 43-68 69-3 5-4 5-6 9-1 1-3 6-5 11-10 20-17 39-21 64-1 5-2 18-2 19 1 0 6 1 56 1l55 0z m190 1c1-2-1-20-3-30 0-2-1-6-1-9-1-2-2-6-2-8 0-2-1-4-1-5-1-5-4-18-6-22 0-2-1-4-2-6-2-7-6-20-8-25-1-1-2-4-4-8-3-8-11-25-15-32-4-7-12-21-15-25-2-2-4-5-5-6-6-9-15-21-17-21-2 0-19 24-29 41-9 14-17 30-23 45-1 3-3 6-3 7-5 11-14 40-16 52 0 1-1 3-1 5-2 10-4 23-6 43 0 1 0 3 0 3 0 1 4 2 78 2 74 0 78-1 79-1z m143-5c0-7-1-15-3-25-1-3-2-7-2-8 0-1-1-3-1-4-5-16-6-20-9-26-3-7-8-20-11-25-1-1-2-3-3-3 0-1-1-2-1-3-1-1-2-3-4-5-13-22-35-45-56-60-7-5-17-11-18-12-1 0-2-1-3-2-4-2-19-10-26-13-10-3-24-8-33-10-2-1-6-1-8-2-7-2-7-1 0 9 1 2 3 3 3 4 0 0 0 1 1 2 1 2 10 16 10 16 0 1 2 3 3 5 3 6 6 11 11 20 7 15 11 25 17 39 1 3 2 7 3 8 0 1 1 5 2 8 1 4 2 7 3 8 1 3 6 22 7 30 4 16 7 44 7 51 0 4-5 4 56 3l56 0z"/>
<glyph glyph-name="icon-19" unicode="&#115;" d="M242 511c0 0-2-1-7-1-11-1-29-3-41-7-9-2-29-8-32-10-1 0-3-1-4-1-38-15-75-43-101-76-15-18-29-41-37-61-1-3-2-6-3-7 0 0-1-2-1-3-3-8-5-14-5-16-1-2-2-5-2-6-4-14-7-33-8-51-1-14-1-41 1-51 1-2 1-6 2-9 2-13 5-26 9-38 3-9 4-10 4-12 1 0 2-3 2-4 13-32 37-66 63-90 15-13 27-22 42-32 9-5 24-13 32-16 2-1 6-2 6-3 1 0 3-1 4-1 8-3 13-5 16-5 2-1 5-2 6-2 6-2 16-4 24-5 3-1 7-1 9-2 14-2 55-2 69 0 2 1 6 1 9 2 15 2 32 7 47 12 2 1 4 2 4 2 2 1 6 2 11 5 15 6 35 18 48 29 23 17 42 37 58 60 8 12 18 31 24 44 1 2 2 6 3 6 0 1 1 3 1 4 0 1 1 5 2 8 7 18 12 42 13 60 0 7 1 9 1 8 1 0 1 5 1 13 0 11 0 13-1 14 0 0-1 2-1 7-1 11-3 27-6 40-3 10-9 30-11 33 0 1-2 4-3 8-10 23-26 48-44 69-25 27-57 50-89 64-4 2-8 3-9 4-2 0-15 5-19 6-9 3-11 3-18 5-11 2-26 4-35 5-7 0-9 1-7 1 0 1-5 1-13 1-11 0-14 0-14-1z m32-33c11-1 20-2 25-3 2-1 5-1 8-2 20-4 45-15 64-26 9-6 21-14 26-19 1 0 3-2 5-3 5-5 17-17 22-23 2-2 4-5 5-5 3-4 13-19 19-27 7-12 14-27 17-37 1-2 2-6 3-8 7-20 11-47 11-69 0-10-1-29-3-37-5-29-15-55-30-80-16-27-41-53-68-70-27-18-54-28-86-34-8-2-27-3-36-3-10 0-29 1-37 3-15 2-29 6-40 11-2 0-4 1-5 1-1 0-4 2-8 4-38 16-72 45-96 79-18 28-29 55-35 89-2 8-3 27-3 36 0 9 1 29 3 36 3 20 8 36 16 54 16 39 46 74 82 97 6 4 18 11 19 11 0 0 1 1 3 2 3 2 19 9 23 10 2 1 6 2 8 3 5 2 8 3 17 5 23 5 49 7 71 5z m-22-63c-5-2-8-4-11-9-1-2-1-5-1-79l0-76 1-3c1-1 3-3 4-4 1-1 21-12 51-27l50-25 5 0c5 0 6 0 8 2 6 4 8 6 8 14 0 5 0 5-2 8-1 1-2 3-3 3-1 1-21 12-45 24-24 12-44 22-45 22 0 1 0 25-1 70 0 66 0 69-1 71-2 3-4 6-7 7-4 2-8 2-11 2z"/>
<glyph glyph-name="icon-20" unicode="&#116;" d="M356 508c-8 0-21-2-29-5-23-6-41-15-59-31-8-7-44-43-46-46-1-2-1-3-1-8 0-7 1-9 5-13 3-3 7-4 12-4 6 0 7 0 32 25 12 12 23 23 25 24 7 6 19 13 27 16 20 8 46 10 67 5 37-9 68-37 80-73 4-12 5-21 5-34 0-24-6-43-19-62-5-8-9-12-29-33-12-11-21-21-22-22-2-3-4-8-3-11 1-6 4-11 9-14 5-2 12-2 16 1 4 2 46 45 51 51 14 18 23 38 28 59 3 16 4 35 2 48-1 8-3 17-4 20 0 1-1 3-1 5-4 11-7 20-12 28-1 2-2 4-2 4 0 1-12 17-17 22-18 20-41 35-65 42-2 0-4 1-5 1-9 3-34 6-45 5z m-15-147c-2 0-3-1-4-1-1-1-43-42-94-93-76-76-91-91-92-94-2-4-2-10 0-14 1-3 4-6 8-8 3-2 11-2 15 0 1 1 28 27 93 92 77 77 92 92 93 95 2 4 2 10 0 14-3 7-12 11-19 9z m-255-72c-5-3-45-43-54-54-9-12-17-28-22-42-7-21-9-45-6-64 1-9 3-17 3-19 1-1 1-3 2-5 3-10 7-20 12-28 1-2 2-4 2-4 0-2 12-17 17-23 21-23 49-39 79-45 22-4 43-3 65 2 19 5 36 14 53 27 6 5 49 47 51 50 3 5 3 12 0 17-2 5-8 9-15 9-6 0-7 0-31-24-11-12-23-23-25-24-14-11-26-17-43-22-15-4-37-4-52 0-41 10-73 41-82 82-4 15-4 36 0 50 2 9 6 20 9 26 1 1 2 3 3 5 1 2 6 10 9 13 1 2 12 13 24 25 25 25 25 25 25 32 0 5-1 8-5 12-3 4-5 5-11 5-4 0-5 0-8-1z"/>
<glyph glyph-name="icon-21" unicode="&#117;" d="M69 486c-10-1-21-2-23-3 0 0-1-1-2-1-4 0-19-9-25-15-7-8-13-17-15-26-3-11-3-8-3-126 0-118 0-114 3-125 3-13 13-27 25-35 8-6 14-8 27-10 3 0 6-1 6-1 0 0-1-2-2-4-5-7-8-16-10-26-1-5-1-8-1-16 0-9 1-11 3-18 2-9 6-16 11-23 3-6 11-14 15-17 2-1 4-2 6-3 11-8 26-12 40-12 23 0 43 9 57 26 9 10 14 21 17 34 2 7 2 24 0 30-2 9-5 18-10 26 0 1-1 2-1 3 1 0 6 0 68 0 63 0 68 0 69 0 0-1-1-2-1-3-5-8-8-17-10-26-2-7-2-24 0-31 3-14 9-25 19-35 14-16 33-24 54-24 21 0 39 7 54 22 14 14 22 33 22 53 0 16-3 27-12 41 0 1-1 2 0 3 0 0 7 0 14 1 14 0 15 0 19 1 10 4 18 11 23 20 4 9 4 9 4 62 0 42 0 47-1 51-2 5-4 10-7 14-4 5-61 62-65 65-5 4-7 5-12 7-3 1-4 1-30 1-15 1-28 1-28 1 0 0-1 15-1 32 0 26 0 33-1 36-1 7-4 14-5 17-1 1-2 2-2 3-1 3-7 9-11 13-6 6-10 8-16 12-6 2-9 3-19 5-7 1-7 1-120 1-61 0-117 0-123 0z m244-34c2 0 4-1 5-2 4-1 9-6 11-10 4-5 5-9 6-19 0-13 0-244-1-245-1 0-255 0-268 0-10 1-15 2-19 6-4 2-9 7-11 11 0 1-1 4-2 6-1 4-1 8-1 116 0 108 0 112 1 116 2 6 4 10 8 14 7 6 11 8 20 8 3 1 59 1 126 1l121 0z m102-118c1 0 8-6 32-31l31-30 0-93-2-1c-1-2-3-2-5-3-2 0-24 0-53 0-45 0-50 0-51 1-1 0-1 8-1 78 0 70 0 78 1 79 1 1 4 1 23 1 15 0 23 0 25-1z m-282-191c16-3 29-16 34-31 1-6 1-18 0-23-4-14-15-26-30-31-4-1-5-1-13-1-8 0-9 0-13 2-14 4-24 14-29 28-1 5-2 15-1 21 2 8 6 16 12 23 7 6 14 10 22 12 4 1 14 1 18 0z m263 0c15-3 27-14 33-30 1-3 1-5 1-13 0-8 0-9-2-13-4-14-14-23-29-29-3-1-4-1-12-1-8 0-10 0-13 2-13 4-21 11-27 22-3 7-4 13-4 21 1 8 2 12 5 18 6 12 17 20 29 23 5 1 14 1 19 0z"/>
<glyph glyph-name="icon-22" unicode="&#118;" d="M133 509c-6 0-25-4-31-5-1-1-4-2-6-2-11-4-24-10-35-17-9-7-21-18-29-28-3-4-9-11-9-12 0 0 0-1-1-3-2-3-4-6-5-9-1-1-2-3-3-5-3-7-6-17-8-25-2-6-4-19-4-25-1-3-1-53-1-127l0-122 2-8c2-11 3-15 5-22 2-5 2-7 5-13 1-4 7-15 9-18 1-1 1-2 1-2 0-1 2-4 5-7 5-7 14-17 22-24 4-4 14-11 16-12 0 0 1 0 1-1 2-1 12-6 18-9 12-5 19-7 34-9 4-1 10-2 12-2 7-1 242-1 248 0 13 1 29 5 42 9 4 1 19 9 21 11 2 1 3 1 3 1 0 0 4 2 7 5 7 5 19 16 25 23 3 4 11 14 11 15 0 0 0 1 1 3 1 1 2 2 2 2 0 1 1 2 1 3 2 2 6 12 8 16 1 3 4 14 5 18 1 5 4 19 4 24 1 6 1 241 0 247-2 18-7 37-13 50-2 5-6 12-8 16-7 11-19 25-31 34-4 3-11 9-12 9 0 0-1 0-3 1-3 2-6 4-9 5-1 1-3 2-5 3-11 5-20 7-37 11l-10 1-123 0c-68 0-124 0-125 0z m260-41c7-2 12-4 16-5 1-1 4-2 5-3 12-5 26-17 35-28 4-5 9-13 11-18 1-2 2-5 3-5 1-3 4-12 5-18 2-10 2-18 2-136 0-128 0-128-3-141-3-7-3-9-7-18-5-12-16-24-28-34-6-5-10-8-17-11-3-1-6-2-6-3-5-2-18-5-27-6-13-1-240-1-253 0-10 1-20 3-27 6-1 1-4 2-6 3-18 8-36 27-45 46-1 2-2 4-3 5 0 1-2 6-3 11-2 5-3 12-3 19-1 11-1 236 0 247 0 11 3 23 6 30 1 1 2 4 3 5 4 9 12 20 20 28 9 9 18 15 31 21 7 2 18 5 25 6 1 0 60 0 131 0l129 0z m-11-62c-3-1-8-4-10-7-3-4-4-7-4-12 0-4 0-6 1-8 2-5 7-10 14-11 4-1 9-1 14 2 3 2 5 4 8 9 1 3 1 12 0 16-2 3-7 8-10 10-3 1-10 1-13 1z m-141-44c-27-4-52-18-69-39-6-8-13-20-16-27-5-15-8-26-8-41 0-12 2-22 6-34 9-27 29-49 54-61 5-3 7-4 15-7 10-3 20-5 32-5 14 1 23 2 35 6 26 9 49 28 61 54 3 5 4 7 6 15 7 19 7 42 1 62-6 22-18 40-35 54-8 6-20 13-27 16-5 2-13 4-17 5-10 2-27 3-38 2z m24-39c11-2 17-4 27-10 4-2 12-9 15-13 9-11 13-20 16-34 3-19-3-39-15-54-16-18-40-28-62-24-10 2-17 4-24 8-16 9-27 24-32 41-2 5-3 13-3 18 0 10 3 23 8 31 5 11 11 18 21 25 3 2 12 7 16 8 10 4 23 6 33 4z"/>
<glyph glyph-name="icon-23" unicode="&#119;" d="M73 506c-2-1-4-1-6-1-8-2-20-6-27-11-6-4-14-11-18-16-9-11-14-23-16-37-1-6-1-10-1-186 0-179 0-179 1-186 6-33 30-58 64-63 6-1 9-1 188-1 150 0 181 0 184 1 2 0 6 1 9 2 29 9 49 32 54 62 1 6 1 10 1 185 0 180 0 180-1 186-4 23-17 42-36 54-9 5-17 8-28 10-6 1-10 1-186 1-99 0-181 0-182 0z m368-40c12-5 21-14 25-27 1-3 1-10 1-184l0-180-1-5c-2-6-5-11-11-16-5-5-9-7-16-9-3-1-11-1-184-1l-180 0-5 1c-6 2-11 5-16 10-4 5-7 10-9 17-1 3-1 10-1 184l0 180 1 5c2 6 5 10 9 15 6 6 14 10 22 11 1 0 83 0 181 0l179 0z m-309-78c-5-1-8-5-10-9-2-4-2-11 0-15 5-14 23-17 32-5 3 3 4 5 5 9 1 7-2 13-7 17-4 4-7 5-12 5-4 0-5 0-8-2z m4-85c-6-1-12-6-14-12-1-3-1-3-1-79l0-77 1-3c2-4 5-8 10-10 3-1 4-1 8-1 5 0 9 1 13 5 3 3 5 7 6 11 0 5 0 149-1 152-1 5-6 11-10 13-3 1-9 2-12 1z m116 0c-1 0-3-1-5-1-3-2-7-6-9-9l-2-4 0-154 2-3c2-5 5-8 9-10 3-1 5-1 8-1 4 0 5 0 9 1 4 2 7 6 9 10l1 3 1 49c0 31 0 50 1 51 3 12 10 21 21 27 21 9 45-1 53-23 0-2 1-6 2-8 0-3 0-24 0-48 0-24 0-45 0-47 1-4 3-7 6-10 5-4 8-5 14-5 3 0 4 0 7 1 4 2 8 6 10 10l1 3 0 50c0 47 0 50-1 55-3 17-10 30-21 41-4 3-8 7-11 9-2 1-5 3-5 3-5 4-16 8-25 9-7 2-22 2-29 0-7-1-12-3-19-6l-5-3-4 4c-2 2-5 4-7 5-3 1-8 2-11 1z"/>
<glyph glyph-name="icon-24" unicode="&#120;" d="M16 511c0 0-1-1-3-3-9-3-13-10-13-18 0-4 1-7 3-10 1-1 51-52 113-113 61-62 111-112 111-113 0 0-50-51-112-112-61-62-112-113-112-114-6-10-2-21 7-26 3-2 3-2 10-2 7 0 7 0 10 2 1 1 49 49 114 113 61 61 111 111 111 111 1 0 52-50 113-112 78-77 113-112 114-113 2-1 4-1 9-1l7 0 4 2c4 3 5 5 7 10 1 1 2 3 2 3 1 0 1 1 1 4 0 3 0 4-1 4 0 0-1 1-1 2-1 1-1 3-2 3 0 1-51 52-112 114-62 61-112 112-112 112 0 1 50 51 112 113 73 73 112 113 112 114 1 1 2 3 2 4 1 1 1 1 1 1 1 0 1 2 1 4 0 3 0 4-1 4 0 0 0 0-1 1-2 7-6 11-12 13-2 2-4 3-4 3 0 1 0 1-3 1-2 0-3 0-3-1 0-1-3-2-4-2 0 0-1-1-3-2-1-1-52-51-113-112-86-86-112-112-113-112-1 0-27 26-112 112-106 106-112 111-116 113-2 1-4 2-4 3 0 1-7 2-7 0z"/>
<glyph glyph-name="icon-25" unicode="&#121;" d="M351 508c-4 0-13-2-18-3-14-3-29-11-41-21-8-7-239-238-244-245-7-8-12-16-16-25-4-8-4-8-7-15-2-6-3-8-6-19-2-10-3-17-3-32 0-13 0-16 2-22 1-8 2-11 5-24 2-6 8-20 12-26 12-20 28-37 47-49 16-11 32-18 51-21 24-5 52-3 75 5 18 6 33 14 47 26 5 4 237 236 238 238 1 1 2 3 2 4 1 3 1 3 0 6-3 8-10 12-17 9-1-1-42-41-119-118-65-65-119-118-121-120-7-6-17-12-23-15-2-1-5-2-7-3-6-3-20-7-30-9-5-1-8-1-20 0-14 0-17 0-26 3-3 1-6 1-7 2-5 1-13 4-20 8-36 19-60 56-64 98-1 15 2 32 7 47 2 7 6 15 8 18 0 2 1 3 2 4 1 3 6 10 10 15 4 5 237 238 242 242 8 7 20 12 31 15 7 2 26 2 33 0 13-3 20-7 30-14 9-7 19-20 23-30 1-2 2-4 3-6 0-2 1-5 2-9 2-7 2-22 0-29-2-12-6-19-12-29-4-7-230-232-234-234-6-3-10-4-16-4-6 0-10 1-15 3-11 7-18 20-16 33 1 5 2 9 5 12 1 2 45 47 99 100 54 54 98 99 99 99 0 1 1 3 1 4 1 5 0 9-3 12-5 4-10 5-15 2-3-1-197-196-200-200-5-5-8-14-10-22-2-6-2-19 0-25 3-11 7-20 15-27 4-4 6-6 11-9 11-7 27-10 40-7 10 3 16 5 23 11 7 5 229 227 234 234 11 14 17 28 20 46 0 5 1 9 0 18 0 12 0 14-3 25-3 9-3 10-7 17-5 10-10 18-18 26-6 6-15 13-22 17-12 6-21 9-35 12-5 1-18 2-22 1z"/>
<glyph glyph-name="icon-26" unicode="&#122;" d="M251 495c-5-2-7-4-11-12-1-3-2-6-2-7-1-1-3-5-4-9-3-8-4-9-5-12-1-2-6-15-11-26-2-5-4-10-4-11-1 0-3-6-6-12-2-6-5-14-7-18-2-5-5-12-7-17-2-5-4-9-4-10-1-1-2-5-4-9-5-12-6-13-10-15-3-2-9-2-30-4-7 0-17-1-22-2-6 0-16-1-22-1-6-1-16-2-21-2-5 0-15-1-21-2-6 0-15-1-21-1-6-1-13-1-16-2-9 0-13-1-17-5-1-2-4-8-4-10 0-2 3-7 5-9 1-2 13-12 26-23 13-11 25-21 26-22 1-1 7-6 11-10 1-1 10-8 20-17 11-9 20-17 21-18 1-1 4-3 7-6 9-8 11-10 12-14l1-3-2-8c-1-4-2-9-2-11-1-3-4-15-6-21 0-2-1-5-1-7-1-3-1-5-5-19-2-12-3-14-4-17 0-2-1-5-1-7-1-2-2-7-3-11-1-4-2-10-3-14-1-4-3-11-4-15-1-4-2-8-2-10-1-2-2-6-3-10-1-6-1-9 0-12 1-5 7-10 13-10 2 0 3 0 6 2 3 1 6 2 7 4 2 1 9 5 15 8 6 4 13 9 15 10 2 1 5 2 5 3 1 0 25 15 27 16 1 1 9 6 17 11 9 5 22 13 30 18 7 4 14 8 15 9 0 0 2 1 3 2 3 1 4 2 7 2 5 0 3 1 26-13 6-4 12-7 12-8 1 0 2-1 4-2 1-1 3-1 3-2 1 0 6-3 11-7 6-3 11-6 13-7 1-1 3-2 3-3 3-1 27-16 28-16 1-1 2-2 3-2 1-1 7-4 14-9 6-4 14-8 16-9 6-4 12-7 14-7 5 0 11 3 14 8 1 4 1 7 0 14-1 4-2 8-3 10-2 10-4 18-5 21 0 1-1 3-1 4 0 0 0 2-1 4 0 3-1 4-4 19-1 3-2 7-2 9-1 2-1 5-2 7-2 8-6 25-7 29 0 2-1 5-2 7-1 6-4 18-5 21-1 6-4 18-4 19 0 1 1 3 1 4 2 4 4 6 12 13 3 3 6 5 7 6 4 4 39 33 40 35 2 1 15 13 20 16 0 1 10 10 22 19 11 10 21 19 22 20 1 1 3 4 4 6l1 3-1 4c-4 9-7 11-21 11-3 1-10 1-15 2-5 0-15 1-21 1-7 1-16 2-21 2-6 0-15 1-22 2-6 0-16 1-21 1-6 1-15 2-22 2-22 2-28 3-31 4-2 1-3 3-4 5-1 1-2 3-2 3 0 0-2 4-4 9-5 11-10 24-13 32-2 3-3 7-4 8 0 1-1 3-2 6-1 2-3 7-5 12-2 4-5 12-7 17-2 5-4 9-4 10 0 0-3 6-5 12-4 10-7 16-13 32-4 7-5 9-9 11-4 2-8 2-11 1z"/>
<glyph glyph-name="icon-27" unicode="&#65;" d="M100 458c-24-1-39-3-49-9-12-5-24-16-32-26-7-12-11-23-13-38 0-3-1-6-1-7 0 0 0-42 0-121 0-107 0-121 1-128 2-16 4-26 10-36 9-15 25-28 41-34 6-3 17-4 31-6 13-1 322-1 335 0 20 2 29 4 38 9 14 7 27 20 34 32 6 11 8 19 10 36 1 8 1 21 1 128 0 103 0 119-1 121 0 2 0 4 0 5 0 3-3 15-4 18-1 6-3 9-6 15-4 7-11 15-18 21-12 10-24 16-40 18-17 2-14 2-177 2-86 0-158 0-160 0z m315-21c15-1 24-2 30-4 10-3 20-10 27-19 7-9 9-15 11-25 1-7 1-9 0-10-1-1-9-6-14-9-1-2-5-4-8-6-4-3-8-6-10-7-2-1-5-4-8-6-6-4-16-11-21-14-2-2-6-4-8-6-3-2-6-4-8-6-2-1-6-4-8-5-2-2-6-4-8-6-2-1-8-5-12-8-5-4-10-7-11-8-1-1-5-4-8-6-11-8-19-13-22-15-2-2-5-4-7-5-8-6-19-13-28-20-2-1-6-4-9-6-10-7-19-13-23-14-12-6-23-5-35 3-4 2-39 26-52 36-3 2-7 5-10 7-3 1-6 4-8 5-1 1-5 4-9 6-3 3-10 7-14 10-11 8-27 20-43 30-2 2-6 5-10 7-3 3-7 5-9 6-1 1-5 4-8 6-3 3-7 5-9 6-1 1-6 5-11 8-4 3-10 7-13 9-3 2-7 5-9 6-4 3-4 4-2 13 3 14 10 26 23 35 10 8 21 11 43 12 18 1 303 1 321 0z m-384-85c3-2 7-5 9-7 3-2 7-4 9-6 2-1 5-3 7-5 11-8 24-16 32-22 5-3 11-8 14-10 3-2 11-7 17-12 6-4 13-9 16-11 3-2 6-4 8-6 2-1 7-4 10-7 9-6 23-16 27-19 2-1 6-4 8-5 3-2 5-4 5-4 0 0 4-2 9-5 4-4 8-7 9-7 0 0 3-2 7-5 7-5 15-9 19-10 12-4 26-4 38 0 5 2 14 7 27 16 2 2 6 5 8 6 2 1 6 4 9 6 2 2 6 4 8 6 1 1 5 3 8 5 2 2 6 4 7 5 2 2 6 4 9 6 3 3 7 6 10 8 2 1 6 4 8 5 2 2 5 4 7 5 2 2 6 4 9 7 3 2 7 4 8 5 2 1 6 4 9 6 3 2 8 6 10 7 3 2 6 5 8 6 2 2 5 4 6 4 2 1 6 4 9 7 4 2 9 6 12 8 3 2 7 5 8 6 2 1 5 3 8 5 3 2 7 5 9 6 2 1 5 4 7 6 3 1 5 2 5 2 1 0 1-12 1-105 0-119 0-122-4-135-2-7-8-17-14-23-4-4-11-9-16-11-9-4-16-5-36-6-20-1-299-1-319 0-15 1-24 2-30 3-18 7-34 24-38 42-2 13-2 17-2 129 0 93 0 106 0 106 1 0 3-1 5-2z"/>
<glyph glyph-name="icon-28" unicode="&#66;" d="M243 511c0 0-2-1-11-1-4-1-10-1-11-1-2-1-6-1-9-2-16-2-32-7-47-13-2 0-4-1-5-1-1-1-5-2-11-5-14-6-34-18-48-29-19-14-36-32-50-51-3-3-3-4-8-10-7-11-18-31-23-43-1-3-2-6-3-7 0 0-1-2-1-3-3-8-5-14-5-16-1-2-2-5-2-6-4-14-7-33-8-51-1-14-1-41 1-51 1-2 1-6 2-9 2-13 5-26 9-38 3-9 4-10 4-12 1 0 2-3 2-4 7-16 17-34 29-51 4-7 5-8 13-17 15-18 32-33 51-46 13-9 31-19 44-24 2-1 6-2 6-3 2 0 3-1 12-4 16-5 31-9 49-11 31-4 64-2 93 5 10 3 30 9 33 11 1 0 4 1 8 3 19 8 41 21 59 36 32 25 59 61 74 98 2 4 4 7 4 8 0 2 5 15 6 19 3 9 3 11 5 18 2 11 4 26 5 34 0 7 1 9 1 8 1 0 1 5 1 13 0 11 0 13-1 14 0 0-1 2-1 7-1 12-3 28-7 42-2 8-7 26-9 30-1 1-2 4-2 5-7 16-17 34-29 51-5 7-6 8-13 17-15 18-32 33-52 46-12 8-31 19-43 24-3 1-6 2-7 2 0 1-2 1-3 2-8 2-14 4-16 5-2 1-5 2-6 2-3 1-9 2-14 3-4 1-8 2-18 4-3 0-8 0-12 1-10 0-11 1-11 1 0 1-4 1-13 1-8 0-13 0-12-1z m33-33c14-1 19-2 31-5 18-4 35-11 51-19 46-24 82-63 103-110 3-8 8-22 9-27 1-1 2-5 2-8 7-26 8-49 6-75-2-21-6-37-13-57-7-20-18-39-31-56-15-20-35-39-56-52-6-4-18-12-19-12 0 0-1 0-3-1-3-2-19-9-23-10-2-1-6-2-8-3-6-2-8-3-17-5-25-6-49-8-74-5-14 1-17 2-31 5-28 7-57 20-80 38-20 14-40 35-53 55-18 27-29 55-35 88-2 8-3 27-3 36 0 9 1 29 3 36 5 31 14 56 29 81 17 27 42 53 69 70 27 18 54 29 87 34 16 3 38 4 56 2z m70-112c-2 0-3-1-3-1-1 0-196-195-197-197-2-3-2-3-2-8 0-6 1-7 4-11 3-4 6-5 12-5 4 0 5 0 7 1 2 2 197 196 199 199 1 2 1 12 0 14-2 3-5 6-7 7-3 2-10 2-13 1z m-169-12c-8-1-15-8-19-16-2-3-2-4-2-11 0-7 0-7 2-11 6-12 17-18 30-16 10 1 19 9 22 19 2 4 2 13 0 17-3 8-9 14-17 18-2 1-12 1-16 0z m145-143c-8-1-17-8-20-17-2-4-2-5-2-10 0-5 0-7 1-9 2-5 3-8 7-11 6-6 12-9 22-8 10 1 19 7 23 17 2 3 2 4 2 10l0 8-2 4c-4 7-9 12-17 15-2 1-10 2-14 1z"/>
<glyph glyph-name="icon-29" unicode="&#67;" d="M226 483c-3-2-4-3-5-5-2-3-2-9-1-11 1-1 8-8 15-16 10-9 14-14 14-14-1 0-43-1-94-1-98 0-100 0-110-3-11-2-19-8-28-17-9-9-12-17-15-35-1-5-1-13-1-126 0-115 0-121 1-128 2-14 5-21 11-30 7-10 20-18 30-21 9-3 13-3 54-3l40 0 3 2c4 2 6 5 6 10 0 4-2 7-5 10l-3 2-38 0c-47 0-50 1-58 6-7 5-12 11-14 18-2 7-2 15-2 93l0 76 459 0 0-76c0-79 0-86-2-93-3-9-11-18-21-22-1 0-4-1-7-1-6-1-20-1-99-1-50 0-92 0-93 0-1 0-1 1-1 1 0 1 7 7 14 15 8 7 14 14 15 15 1 2 1 8 0 11-3 5-9 7-14 6-3-1-4-1-29-27-14-14-27-26-27-28-2-2-2-8 0-11 1-1 13-14 27-28 26-26 27-27 32-27 3 0 8 3 10 6 1 2 2 3 2 6 0 4-1 5-2 6-1 2-7 9-15 16-7 8-13 14-13 14 0 1 29 1 92 1 99 0 103 0 113 3 15 4 29 16 36 30 3 4 4 11 6 21 1 7 1 13 1 128 0 113 0 121-1 127-3 17-7 25-17 36-7 6-12 10-19 13-11 4-18 5-63 5l-36 0-3-1c-2-1-3-3-4-5-2-2-2-3-2-6 0-5 1-8 6-11 1-1 3-1 40-1 45-1 49-1 56-5 5-3 11-9 14-14 4-6 4-16 4-50l0-28-459 0 0 27c-1 39 0 45 6 53 5 8 12 13 19 15 9 2 19 2 108 2 85 0 90 0 90-1 0-1-6-7-14-14-7-8-14-15-14-16-2-3-2-9 0-12 1-2 5-5 8-5 2-1 3-1 6 0 3 1 5 3 29 27 14 15 26 27 27 28 1 1 1 8 0 10-1 2-52 53-54 54-3 1-8 1-11 0z"/>
<glyph glyph-name="icon-30" unicode="&#68;" d="M136 510c-18-1-30-4-41-9-11-6-21-14-28-24-11-14-15-25-17-48-1-12-1-335 0-347 1-9 2-19 4-23 5-18 18-34 34-45 13-9 26-12 49-13 16-1 222-1 237 0 19 1 30 3 41 9 17 8 30 21 38 38 3 6 5 12 6 20 3 15 3 14 3 129 0 113 0 129-1 139-3 16-9 28-19 41-2 2-29 29-58 59-57 56-60 59-70 64-8 4-13 6-24 9-5 1-6 1-75 1-38 0-74 0-79 0z m152-25c1-1 3-2 3-2 1-1 1-25 1-54 0-56 0-59 2-65 2-4 4-8 7-12 6-5 11-8 18-10 5-1 7-1 60-2l55 0 1-2c2-4 2-9 2-127 0-117 0-129-2-140-2-12-9-24-19-32-2-1-3-2-4-3 0 0-2-1-4-2-7-5-12-6-24-8-8-1-249-1-257 0-6 1-15 3-17 4 0 0-2 1-3 1-6 3-14 9-18 14-7 8-11 16-13 25-2 12-3 18-3 185 0 165 0 171 3 184 2 15 11 28 24 37 3 2 13 6 14 6 1 0 2 1 3 1 1 0 13 2 18 2 1 1 35 1 76 1 66-1 74-1 77-1z m80-68c28-28 51-51 51-51 0-1-5-1-47-1-52 0-49 0-52 3-3 3-3 4-4 17 0 13 0 80 0 81 0 1 1 1 1 1 1 0 24-23 51-50z m-214-175c-9-4-10-14-3-20 1-1 3-2 4-2 1-1 37-1 102-1l99 0 3 2c3 2 5 6 6 9 0 4-1 7-4 10-4 4 3 3-106 3-95 0-99 0-101-1z m0-97c-5-2-8-6-8-11 0-4 3-9 7-11 2-1 5-1 78-1l77 0 3 2c3 3 5 5 5 10 0 6-3 10-8 12-1 0-26 0-77 0-71 0-75 0-77-1z"/>
<glyph glyph-name="icon-31" unicode="&#69;" d="M235 508c-9 0-20-2-25-3-9-2-14-3-18-4-3-1-5-1-6-1-2-1-18-6-21-7-10-4-26-12-34-17-2-1-5-2-6-3-1 0-3-1-4-2-1-1-3-2-6-4-3-2-9-6-18-13-13-10-35-33-46-48-12-16-17-24-24-39-13-27-21-52-25-86-1-4-1-7-1-8-1-2-1-35 0-37 0-1 0-5 1-9 4-27 8-45 17-69 2-4 3-7 4-8 0 0 2-4 4-8 2-4 4-9 6-12 1-2 2-4 2-4 0 0 1-2 2-3 1-2 4-6 5-8 2-3 6-9 10-13 30-40 70-71 118-88 6-2 8-3 18-5 8-3 22-6 33-7 4-1 9-1 11-1 6-1 41-1 48 0 17 2 33 5 44 8 1 0 4 1 7 2 10 3 28 10 39 16 35 18 65 43 89 74 5 7 14 20 16 24 1 1 2 3 2 4 1 1 4 7 7 12 13 27 21 54 25 86 1 8 1 10 2 10 1 0 1 6 1 18 0 11 0 17-1 17-1 0-1 2-2 9-1 8-3 20-4 24-2 9-2 11-3 14 0 1-1 4-2 7-3 11-9 26-15 38-3 8-12 24-14 26 0 0-1 1-1 1 0 1-14 21-20 28-9 11-28 29-36 35-1 0-3 2-6 4-4 4-19 13-22 15-1 1-4 2-6 3-5 4-20 11-26 13-37 16-79 23-119 19z m45-24c2-1 6-1 9-2 3 0 6 0 7-1 1 0 5-1 7-1 10-2 23-6 33-10 1 0 3-1 4-1 11-4 35-17 48-26 6-5 12-9 12-9 1-1 3-3 6-5 11-10 22-21 32-34 4-5 14-20 17-26 6-9 14-26 15-32 1 0 1-2 2-4 2-4 3-8 4-13 1-1 2-4 2-6 1-1 2-6 3-10 1-8 2-12 4-26 0-3 1-11 1-24-1-19-1-21-3-38-2-12-7-30-11-40-1-2-1-4-2-5 0-1-1-4-3-8-7-17-16-33-28-48-8-11-12-14-13-14-1 1-324 324-324 325 0 0 2 2 5 4 17 15 41 30 62 38 3 1 7 3 8 3 4 2 14 5 22 7 10 3 30 6 41 6 6 1 36 0 40 0z m-33-238c104-104 161-162 161-163 0-1-1-3-10-10-14-11-32-22-50-30-10-4-16-6-29-10-4-2-16-4-22-5-3-1-7-2-9-2-6-1-22-2-33-2-47 0-93 14-132 42-19 13-38 32-52 50-4 6-14 20-14 20 0 0-1 2-2 5-9 15-18 37-23 56-3 12-4 16-6 34-1 7-1 39 0 47 1 11 3 18 4 26 2 7 2 9 5 17 1 6 4 13 5 15 0 1 2 5 4 9 7 17 16 32 27 48 6 7 11 13 12 14 1 0 1 1 2 0 0 0 73-72 162-161z"/>
<glyph glyph-name="icon-32" unicode="&#70;" d="M358 508c-7-3-11-11-8-18 1-2 11-12 44-45 25-25 42-42 42-43-1 0-54 0-198 0-157 0-199-1-201-1-5-1-9-7-9-13 0-5 3-10 8-12 3-1 14-1 201-1 132 0 199 0 199-1 0 0-19-19-42-43-30-29-43-43-44-45-1-3-1-7 0-10 3-6 10-9 15-8 1 0 3 1 4 1 1 1 27 26 57 57 51 51 56 56 56 58 1 3 1 9-1 11 0 1-26 27-56 57-60 60-56 57-63 57-1 0-3-1-4-1z m-215-268c-1 0-13-12-58-57-51-51-56-56-57-58 0-4 0-6 0-9 1-2 6-7 57-58 42-43 56-56 58-57 3-1 7-1 11 0 2 1 6 4 7 7 1 3 1 8-1 10 0 2-15 17-43 45-23 23-42 42-42 43 0 1 11 1 199 1l199 0 3 2c2 1 4 3 5 4 2 2 2 3 2 7 0 4-1 5-2 7-1 3-4 5-7 6-1 1-52 1-200 1-108 0-197 0-198 0-1 0-1 1-1 1 0 0 19 20 42 43 32 31 43 42 43 44 3 6 1 12-3 15-4 4-9 4-14 3z"/>
<glyph glyph-name="icon-33" unicode="&#71;" d="M139 485c-30-4-53-13-76-30-13-10-27-24-36-37-13-20-21-42-25-64-1-3-1-7-1-8-1-5-1-30 0-34 0-2 1-6 1-9 4-27 17-54 36-77 6-7 17-19 25-28 17-18 53-54 79-78 5-4 11-10 13-12 9-8 24-22 50-45 32-29 36-33 40-35 3-1 4-2 10-2 9 0 10 1 21 10 5 5 40 35 51 46 11 10 26 24 33 30 36 34 85 82 103 102 6 8 15 18 18 23 4 5 7 9 7 10 0 0 0 1 1 2 4 6 8 15 12 25 2 6 3 9 6 19 1 4 2 13 3 18 0 2 1 3 1 3 1 1 1 30 0 30 0 1-1 2-1 3-2 16-6 30-11 43-3 6-8 16-9 17 0 1-1 2-1 2 0 0-1 1-1 2-17 27-44 51-73 63-7 3-9 3-13 4-1 1-4 1-5 2-15 4-37 6-52 3-12-1-17-3-27-6-6-2-17-6-21-8-1-1-4-2-6-4-10-5-23-15-32-23-2-2-3-3-4-3 0 0-3 2-6 5-11 10-26 20-38 26-3 1-6 3-7 3-1 1-15 5-20 7-6 2-15 3-26 4-8 1-12 1-19 1z m23-26c14-2 26-5 39-12 16-7 25-14 39-29 10-9 10-10 16-10 3 0 6 2 9 5 5 5 15 15 19 18 2 2 6 5 10 8 28 19 60 25 93 18 10-2 27-9 34-14 1 0 2-1 3-2 2 0 11-7 15-10 4-4 11-11 16-17 15-16 26-39 29-60 2-7 3-20 3-25 0-4-1-17-2-23-3-15-9-32-18-45-1-3-3-6-3-6 0 0-2-3-4-5-2-3-4-6-5-7-1-1-3-3-4-5-2-2-6-6-8-9-14-15-18-20-37-39-18-17-29-28-41-39-4-4-9-9-10-10-1-2-5-5-9-8-3-3-7-7-9-8-5-6-9-9-15-15-4-3-7-6-7-6-1-1-9-8-15-14-2-1-4-3-4-3-2-2-6-6-11-10-3-3-6-5-6-6 0 0-3-2-5-4-3-2-7-7-11-10-6-6-8-7-10-5 0 0-2 2-4 4-2 1-7 6-12 11-5 4-11 10-14 12-2 2-5 4-6 5 0 1-3 3-5 5-2 2-5 4-6 6-2 1-5 4-7 6-3 2-6 5-6 6-1 1-5 4-8 6-3 3-6 6-7 7-1 1-4 4-8 7-3 4-7 7-9 9-1 1-5 5-9 9-30 27-75 73-91 92-8 9-10 11-15 18-8 12-14 26-18 42-1 5-3 15-4 23-1 14 1 32 5 45 1 1 1 3 1 3 0 1 5 13 7 18 2 4 6 10 8 14 22 34 54 54 88 59 3 0 6 1 6 1 2 1 17 0 23-1z"/>
<glyph glyph-name="icon-34" unicode="&#72;" d="M62 509c-21-2-30-5-41-16-9-8-14-16-17-27-2-9-2-8-3-93 0-72 0-81 1-86 2-11 6-20 13-28 2-4 221-222 229-230 13-12 25-20 33-23 8-3 9-3 20-5 4-1 18-1 22 0 17 3 23 5 33 12 12 8 21 16 78 74 53 53 59 59 66 69 7 10 11 19 13 30 0 2 1 5 1 6 0 1 1 2 1 2 1 0 1 2 1 9 0 7 0 9-1 9 0 0-1 1-1 2-2 13-6 24-12 33-9 13-4 8-158 162-47 47-87 86-89 88-8 6-16 10-27 12-5 1-15 1-83 1-42 0-78-1-79-1z m156-24c7-1 13-3 18-7 3-3 211-210 224-224 14-15 20-23 23-31 2-8 3-12 3-20 0-13-3-22-9-31-7-10-11-14-67-71-57-56-61-60-70-67-10-6-19-9-32-9-13 0-22 3-31 9-11 8-18 15-135 132-83 82-108 108-110 111-3 5-5 9-6 15-1 7-1 142 0 154 1 15 3 21 11 28 7 8 13 10 27 11 11 0 148 0 154 0z m-64-111c-9-3-16-10-18-20-1-9 4-21 13-25 16-9 35 2 36 20 1 7-2 14-8 19-3 3-6 5-11 6-4 1-7 1-12 0z"/>
<glyph glyph-name="icon-35" unicode="&#73;" d="M100 508c-15-1-26-3-36-7-20-9-37-27-45-46-4-8-5-13-6-23-2-10-2-32-2-178l0-150 1-8c2-9 3-15 5-20 0-1 1-3 1-4 1-2 6-11 8-15 11-15 27-27 42-33 6-2 6-2 11-3 12-2 14-2 59-3 40 0 44 0 46 1 8 4 10 14 4 20-4 5-1 4-47 5-42 0-46 0-57 3-9 2-12 3-23 10-4 3-11 12-15 18-5 7-6 13-8 27-1 7-1 14-1 161 0 145 0 155 1 162 1 12 3 18 7 24 4 8 10 16 18 21 9 7 15 9 29 11 8 1 12 2 48 2 26 0 41 0 43 1 1 0 3 1 4 3 6 6 6 15-1 20l-3 1-38 0c-21 0-41 0-45 0z m257-103c-8-3-12-9-10-15 0-2 1-3 2-4 0-1 24-26 54-55 29-29 53-53 53-54 0 0 0-1-1-1 0 0-63 0-140 0-136 0-140 0-141-1-3-1-5-3-6-5-4-6-2-15 5-18l3-2 140 0c77 0 140 0 140 0 0 0-23-24-52-53-29-29-54-54-55-55-2-4-3-7-2-11 1-3 1-4 3-6 4-3 8-4 13-3l3 0 67 67c41 41 66 67 67 68 1 2 1 4 1 7 0 3 0 4-1 6-3 4-132 133-135 134-2 1-7 2-8 1z"/>
<glyph glyph-name="icon-36" unicode="&#74;" d="M246 511c0 0-1-1-3-1-11-2-25-10-33-21-4-7-7-12-9-21-2-4-2-7-2-12 0-10-2-17-8-22-3-3-4-4-10-6-11-3-19-1-28 8-11 10-24 15-39 15-7 0-11 0-18-3-2 0-4-1-5-1-1-1-9-5-12-8-11-8-17-20-20-34-2-6-2-13 0-20 2-12 6-20 14-29 6-6 8-10 9-16 1-5 0-10-3-15-2-5-4-7-7-10-5-3-10-5-17-5-9 0-20-3-26-7-2-1-3-1-3-1 0 0-2-2-4-3-11-8-18-20-21-33-1-5-1-19 0-23 2-10 5-17 10-23 4-6 6-7 11-12 7-4 12-7 21-9 1-1 6-1 12-2 7 0 10 0 12-1 8-3 14-9 16-18 3-8 0-17-7-24-11-11-16-24-16-40 0-7 0-11 2-18 1-2 2-4 2-5 0 0 2-3 3-5 9-15 22-24 39-27 6-2 13-2 20 0 12 2 20 6 29 15 8 7 14 9 23 8 6-1 13-5 17-9 4-5 6-11 6-18 0-26 18-48 44-54 5-1 19-1 25 0 8 2 15 5 22 10 5 4 6 6 11 11 4 6 7 12 9 21 1 1 1 6 1 12 1 7 1 10 2 12 3 8 9 14 18 16 8 3 16 0 24-8 7-6 15-10 23-13 5-2 13-3 17-3 5 0 13 2 18 3 2 1 4 2 5 2 2 1 10 6 13 9 10 8 16 19 19 33 2 6 2 13 0 20-2 12-6 20-14 29-2 2-4 4-5 5-7 9-5 23 3 32 5 5 9 6 21 7 13 1 23 4 32 11 11 8 19 22 21 33 0 2 1 3 1 3 1 0 1 19 0 19 0 0-1 2-1 3-1 5-4 13-9 19-9 15-27 25-45 25-10 0-17 2-22 7-3 3-4 5-6 11-1 5-2 8-1 13 1 5 4 9 9 14 8 9 12 16 15 29 1 5 1 17-1 22-4 20-17 35-36 42-9 3-19 4-29 2-12-2-20-6-29-14-2-2-4-4-6-5-8-7-23-5-31 3-5 5-7 9-7 21-1 13-4 23-11 32-9 11-22 19-34 21-1 0-2 1-2 1 0 1-1 1-10 1-8 0-9 0-9-1z m17-25c7-2 15-7 19-13 4-6 5-11 6-21 0-9 1-14 4-20 6-12 17-21 29-25 4-2 12-3 16-3 4 0 13 2 18 4 6 2 11 5 16 10 8 7 16 11 24 11 8 0 18-4 24-10 4-5 6-10 8-17 0-4 0-5 0-9-1-8-4-14-11-20-6-7-11-16-13-25-1-4-1-16 0-19 3-9 4-14 5-16 1-1 2-3 4-5 4-6 12-13 19-16 6-3 11-4 20-4 13-1 20-3 27-10 12-12 12-31 1-44-7-7-14-10-27-11-9-1-14-2-20-5-10-5-17-11-22-21-3-5-4-9-5-15-1-7-1-10 0-16 2-11 6-18 13-26 6-6 9-11 10-17 4-15-5-31-20-37-1 0-4-1-6-2-4 0-5 0-9 0-8 1-13 4-20 10-7 7-16 12-25 14-5 1-14 1-19 0-23-5-39-25-39-48 0-12-3-20-10-27-12-12-32-12-45 0-7 6-9 13-10 25-1 11-3 18-8 27-8 11-21 18-35 21-7 1-10 1-16 0-11-2-18-6-25-13-7-6-12-9-18-10-8-2-14-1-22 3-12 6-19 19-17 32 1 8 4 13 10 20 7 7 12 16 14 25 1 4 1 15 0 19-6 24-25 39-48 39-12 0-20 3-27 10-12 12-12 32 0 44 6 8 13 10 25 11 14 1 26 6 34 15 4 4 10 13 10 14 0 1 0 1 0 2 1 0 3 7 4 12 1 7 1 9 0 16-2 11-6 18-13 26-6 6-9 11-10 17-2 9 0 18 5 26 6 9 18 14 30 13 8-1 13-4 20-10 7-7 16-12 25-14 5-1 15-1 20 1 2 0 5 1 7 1 3 1 6 2 8 4 10 6 17 13 21 22 3 6 4 11 4 20 1 13 3 20 10 27 8 7 19 11 30 8z m-17-146c-18-2-32-8-45-19-16-13-25-30-30-52-1-5-1-22 0-28 2-10 4-15 9-25 7-14 21-28 36-36 13-7 24-10 39-10 16 0 25 3 39 10 15 7 29 21 37 36 7 13 9 24 9 39 0 16-2 25-9 39-7 15-21 29-36 37-8 4-15 6-24 8-4 1-22 2-25 1z m19-25c9-1 11-2 18-5 18-9 30-26 33-46 1-9 0-23-4-31-5-11-11-19-18-25-14-11-32-15-48-13-5 1-11 3-13 4-11 4-19 10-25 18-13 16-17 36-11 56 1 4 1 4 4 10 7 13 17 23 30 28 10 5 23 6 34 4z"/>
<glyph glyph-name="icon-37" unicode="&#75;" d="M239 507c-17-1-35-4-52-9-4-1-15-5-21-7-5-2-19-8-26-12-34-17-64-42-87-73-5-7-13-18-14-21 0 0-1-1-1-2-2-2-13-23-15-29-1-2-2-5-3-7-5-12-10-30-13-44-3-17-4-28-4-49 0-21 1-32 5-50 2-10 2-12 5-22 1-2 2-5 2-6 1-5 5-16 9-25 18-39 47-75 82-101 4-2 16-11 17-11 1-1 2-1 3-2 3-2 13-7 19-10 24-12 51-20 77-23 3-1 9-1 11-2 13-1 16-1 26-1 6 0 13 0 17 1 3 0 9 1 13 2 11 1 25 4 35 7 6 2 21 7 25 8 1 1 4 2 8 3 8 4 20 10 27 15 44 26 76 61 98 105 3 6 5 10 5 10 0 0 0 2 1 3 6 12 12 34 16 50 3 19 4 30 4 53 0 11-1 22-1 25-2 13-4 24-5 30-2 7-3 9-4 14-1 4-3 8-4 11-1 4-2 7-6 16-3 7-13 27-15 29 0 1-1 2-1 2-2 5-15 22-24 33-11 14-31 32-44 41-20 14-36 23-55 31-7 2-18 6-23 7-2 1-5 2-8 2-4 2-8 3-17 4-18 4-43 5-62 4z m34-25c8 0 19-1 23-2 2-1 5-1 7-2 13-3 32-8 39-12 1 0 2-1 2-1 1 0 20-9 24-11 19-11 32-21 48-38 12-11 13-13 20-21 12-16 24-36 31-53 1-3 2-5 2-6 1-1 4-10 5-13 2-7 3-10 4-15 5-21 6-31 6-54 0-17 0-22-2-35-3-16-8-33-14-49-4-11-12-27-17-35-2-2-3-4-3-4 0 0-5-8-10-15-12-16-28-32-44-44-15-11-32-21-49-28-8-4-12-5-25-9-3-1-17-5-23-6-3 0-6-1-8-1-6-1-23-2-33-2-20 0-35 1-54 6-8 2-9 2-17 4-59 19-108 62-136 119-8 16-12 30-18 53-1 4-2 13-3 18 0 2 0 7-1 10 0 7 0 36 1 43 2 15 3 24 7 35 1 4 6 20 6 22 1 1 2 4 4 8 4 9 7 16 13 27 3 5 13 18 17 23 12 16 28 32 42 43 7 5 18 12 26 17 3 2 18 9 22 10 5 3 14 6 17 7 2 1 5 2 7 2 4 2 13 4 19 5 2 1 5 1 6 2 2 0 5 0 8 1 3 0 6 0 6 1 4 1 32 1 45 0z m-33-96c-11-2-16-4-24-8-8-4-15-9-21-15-5-5-10-10-10-11 0 0 0-1-1-2-1-1-2-3-3-5-7-11-9-19-6-24 2-5 8-7 14-6 3 1 6 4 7 7 5 10 9 16 14 22 14 14 34 21 52 18 8-1 11-2 17-5 17-8 28-22 33-41 1-4 1-7 1-12 0-7 0-8-1-13-3-8-8-15-15-22-10-9-26-19-40-24-9-4-10-5-12-6-2-1-3-5-3-9 0-6 3-10 8-11 3-1 4-1 7 0 7 2 14 5 20 8 1 1 4 2 7 4 2 1 6 3 7 4 2 1 3 2 3 2 0 0 1 1 3 2 22 15 35 31 40 51 1 6 1 22-1 29-2 10-5 18-10 26-9 15-23 28-39 35-8 3-10 4-20 6-6 1-22 1-27 0z m12-241c-5-2-9-6-9-11 1-12 17-16 23-6 1 2 1 3 1 6 0 4 0 4-1 6-2 3-4 4-7 5-3 1-4 1-7 0z"/>
<glyph glyph-name="icon-38" unicode="&#76;" d="M235 511c0 0-2-1-5-1-7-1-17-2-25-4-9-1-10-2-15-3-3-1-6-2-7-2-6-2-10-3-19-7-10-3-26-11-33-15-1-1-3-2-5-3-2 0-4-2-5-2-1-1-2-2-2-2 0 0-11-7-16-11-42-31-73-74-90-123-1-4-2-6-4-13-4-14-7-29-8-45-1-8-1-42 0-49 0-8 2-18 3-23 3-14 3-15 7-28 4-15 14-37 21-49 0-1 2-3 2-5 1-2 3-4 3-5 1-1 2-2 2-2 0 0 8-12 12-17 10-13 22-27 34-37 3-3 5-5 6-6 1-1 1-1 11-8 21-16 45-29 70-38 5-1 7-2 14-4 14-4 29-7 45-8 8-1 42-1 49 0 9 1 18 2 25 3 10 2 11 2 16 4 3 1 5 1 6 2 7 2 11 3 20 6 12 5 28 12 40 19 2 2 4 3 4 3 9 5 30 22 34 25 0 1 3 3 6 6 5 4 15 15 20 21 5 6 6 7 10 13 4 5 13 18 15 23 7 12 14 27 19 40 2 5 4 10 5 13 0 1 1 4 1 4 4 13 3 12 5 22 2 8 3 18 4 25 0 3 1 5 1 4 1 0 1 5 1 21 0 13 0 21-1 21 0 0-1 1-1 6-1 7-3 24-5 31-3 12-6 23-9 30-1 2-1 4-2 5-1 5-11 26-15 32-1 1-2 3-3 5 0 1-2 3-2 5-1 0-2 1-2 2 0 0-7 10-11 16-25 33-58 61-94 78-6 3-17 8-19 8-1 1-4 2-7 3-4 1-8 3-14 4-1 0-3 1-6 2-5 1-6 2-16 3-8 2-17 3-24 4-3 0-5 1-5 1 0 1-4 1-21 1-16 0-21 0-20-1z m37-25c21-1 32-3 51-9 16-5 36-14 49-21 2-2 4-3 4-3 0 0 13-9 18-12 7-5 15-12 15-13 1-1-9-11-42-44-23-23-43-42-43-42 0 0-2 1-4 2-2 2-6 4-8 5-12 8-24 12-39 15-7 1-27 1-35 0-17-3-33-10-46-19-2-2-4-3-5-3-1 0-86 85-86 86 0 1 10 9 19 16 5 3 15 9 15 9 0 0 2 1 4 3 16 10 44 21 62 25 6 1 17 3 21 4 14 2 37 3 50 1z m-146-119c24-23 43-43 43-43 0 0-2-4-5-8-5-7-9-15-11-21 0-1-1-3-2-5-2-7-5-19-5-29 0-7 0-20 1-25 2-8 3-11 4-14 3-11 9-22 15-30 2-2 3-4 3-5 0-1-85-86-86-86-1 0-9 10-16 19-3 5-10 15-10 15 0 0-1 2-2 4-9 15-19 39-24 59-2 8-2 7-5 24-3 16-3 51 0 67 1 2 1 5 2 8 4 24 15 55 27 75 1 2 2 4 2 4 0 0 7 10 11 16 7 9 14 18 15 18 1 0 20-20 43-43z m305 39c7-7 12-15 18-24 3-3 4-6 4-6 0 0 1-2 3-4 9-16 18-38 24-59 1-6 2-8 3-14 5-26 5-48 2-75-2-12-4-21-8-35-4-16-14-37-21-50-2-2-3-4-3-4 0 0-9-15-13-20-6-7-12-14-12-14-1 0-20 19-44 43-32 32-42 43-42 43 0 1 2 4 5 8 5 8 6 10 9 17 7 15 9 26 9 43 0 13-1 17-3 27-3 13-10 27-17 37-2 2-3 4-3 5 0 1 85 86 86 86 0 0 2-2 3-4z m-160-67c21-4 37-14 51-31 9-10 14-22 17-37 2-7 2-24 0-30-3-20-11-34-25-47-12-12-25-19-43-23-7-1-24-1-30 0-20 4-34 12-47 25-4 5-10 12-11 15-1 1-2 3-3 4-3 7-6 15-9 25-1 7-1 23 0 30 4 19 12 34 25 46 7 7 12 11 20 15 10 5 17 7 31 9 3 1 19 0 24-1z m-76-175c13-9 26-14 43-17 8-1 27-1 35 0 17 3 33 10 46 19 2 2 4 3 5 3 0 0 20-19 43-43 37-37 43-42 42-43-1-2-9-9-18-16-5-3-15-10-15-10 0 0-2-1-4-2-9-5-27-13-39-18-7-2-16-5-26-7-2-1-12-3-18-4-17-3-51-3-67 0-2 1-6 1-8 2-25 4-55 15-75 27-2 1-4 2-4 2 0 0-15 10-19 14-7 5-14 11-14 12-1 1 10 11 42 43 23 24 43 43 43 43 0 0 4-2 8-5z"/>
<glyph glyph-name="icon-39" unicode="&#77;" d="M185 484c-6 0-15-2-17-3-11-3-20-7-24-9-1-1-3-1-3-2-1 0-3-1-5-2-24-17-41-41-47-68-2-10-3-16-2-26 0-18 4-32 11-46 5-10 8-15 15-22 1-2 3-5 4-6 3-3 19-16 20-16 0 0 1 0 1 0 3-3 18-10 27-12 10-3 18-4 30-4 11 0 13 0 23 2 10 2 25 8 33 13 1 1 2 1 2 1 1 0 3 2 7 5 15 11 25 24 33 40 3 7 4 9 6 17 4 12 4 17 4 30 0 16-1 23-6 39-2 4-8 15-11 20-13 21-34 37-57 44-8 3-14 4-25 5-7 1-10 1-19 0z m26-25c35-7 61-33 67-69 2-7 2-21 0-29-3-18-11-32-23-44-11-11-21-17-34-21-15-5-32-6-47-2-28 8-50 29-59 56-7 21-6 42 3 61 4 7 4 8 9 14 8 12 23 24 35 29 6 2 14 5 18 5 7 2 23 2 31 0z m126 18c-2 0-6-3-7-5-2-3-3-7-2-9 2-5 4-7 12-11 11-5 21-13 28-21 6-7 13-20 16-28 5-18 6-36 0-53-4-14-11-23-21-34-8-7-14-11-24-17-7-3-8-3-9-6-3-5-3-10 1-14 3-4 8-5 12-4 12 4 26 13 37 24 4 4 15 18 15 19 0 0 1 1 2 2 1 3 7 13 7 14 0 1 1 3 2 4 5 15 8 35 6 51-1 6-2 10-4 19-2 7-9 21-14 28-9 14-24 27-37 35-2 1-4 2-5 2-1 1-9 4-11 4-1 1-3 1-4 0z m-228-283c-13 0-20-1-27-3-4-1-12-4-14-5-1 0-4-1-6-2-5-3-5-3-12-7-22-15-39-40-45-65-2-13-4-31-4-55l0-21 2-3c2-4 5-6 9-7 5-1 12 3 13 8 1 2 1 8 1 20 0 28 1 43 3 54 2 7 6 18 10 23 1 1 1 2 1 2 0 1 6 8 11 13 6 6 10 9 16 13 13 8 23 10 43 11 13 1 125 1 154 1 19-1 27-1 36-3 7-1 18-6 27-11 5-4 7-6 13-12 9-9 17-23 20-34 3-11 4-28 4-56 0-11 0-19 1-21 1-3 4-6 8-8 3-1 4-1 7 1 3 1 6 4 7 7 1 2 1 6 1 24 0 32-1 45-4 58-6 23-22 45-43 60-9 6-19 11-28 14-8 2-17 3-34 4-19 1-151 1-170 0z m312-3c-7-2-11-10-7-16 1-3 4-6 6-6 8-2 20-7 27-12 8-6 18-15 24-24 3-4 8-15 9-20 1-2 2-7 3-10 1-5 1-7 2-37 0-22 0-31 1-33 1-2 5-5 8-6 3-2 3-2 8 0 3 2 4 3 5 5l2 4 0 59-1 8c-2 9-3 13-5 18-2 6-5 14-7 17-1 1-2 3-2 3 0 0-5 8-8 12-14 18-35 32-57 38-4 1-5 1-8 0z"/>
<glyph glyph-name="icon-40" unicode="&#78;" d="M251 510c-4-1-9-3-15-6-7-3-13-7-14-7 0-1-2-2-4-3-2-1-5-2-6-3-2-1-4-2-6-3-2-1-5-3-6-4-2-1-3-2-3-2-1 0-2 0-4-1-1-1-4-3-6-4-2-1-4-2-6-3-1-1-4-2-6-4-3-1-5-2-5-2 0-1-3-2-5-3-2-1-4-3-5-3-1-1-4-2-6-3-2-1-5-3-6-4-1 0-3-1-4-2 0 0-2-1-3-1-1-1-4-3-6-4-3-1-5-2-5-3 0 0-2-1-4-2-2-1-5-2-6-3-1-1-4-3-7-4-2-1-5-3-6-3-1-1-2-2-3-2 0 0-2-1-5-3-3-1-7-4-9-5-3-1-5-3-7-4-1 0-3-1-4-2-1 0-3-1-4-2-2-1-5-3-7-4-2-1-4-2-5-3 0 0-2-1-4-2-2-1-5-3-6-4-2 0-3-1-4-1 0-1-3-2-5-3-2-1-4-3-4-3-2-1-8-5-10-8-3-5-6-12-7-17-1-7-1-222 0-229 0-3 1-7 3-10 4-9 9-13 26-22 6-3 8-5 19-11 5-3 11-6 12-7 1 0 4-2 6-3 2-1 5-3 8-4 2-1 5-3 7-4 3-2 8-5 16-9 2-1 5-3 7-4 3-1 7-4 9-5 2-1 5-2 6-3 1-1 2-2 2-2 0 0 4-1 7-3 9-5 9-6 15-8 2-2 5-4 6-4 2-1 3-2 3-2 0 0 3-1 7-3 9-5 11-6 15-9 2-1 4-2 5-2 0-1 2-2 4-3 2-1 5-2 6-3 1-1 4-2 6-3 2-1 5-3 6-4 2-1 3-2 3-2 0 0 2-1 5-2 10-6 16-8 23-8 9 0 13 2 29 11 4 2 8 4 10 5 1 1 4 2 5 3 1 0 4 2 6 3 3 2 6 3 7 4 1 1 2 1 2 1 0 0 2 1 3 2 2 1 5 3 7 4 2 1 4 2 5 3 1 0 4 2 7 3 2 2 5 3 5 3 0 0 2 2 5 3 2 1 4 2 5 3 1 1 4 2 6 3 2 1 5 3 6 4 2 1 3 1 4 2 0 0 2 1 3 1 1 1 4 3 6 4 3 1 5 2 6 3 1 1 3 2 4 2 2 1 4 2 5 3 1 1 4 2 7 4 2 1 5 3 6 3 1 1 2 2 2 2 1 0 3 1 6 3 3 1 7 4 9 5 2 1 5 3 7 3 1 1 3 2 4 3 0 0 3 1 4 2 2 1 5 3 7 4 2 1 4 2 4 2 1 1 4 3 12 7 2 1 6 3 8 4 2 1 4 2 4 3 2 0 7 5 10 8 1 2 3 5 4 8 5 9 4 2 4 126 0 124 0 114-4 123-5 8-9 12-25 20-2 2-6 4-8 5-1 1-7 4-13 7-5 3-10 6-12 7-4 2-7 4-13 7-2 1-6 3-7 4-3 2-8 5-16 9-2 1-5 3-8 4-2 1-6 3-8 5-2 1-5 2-6 3-1 1-2 1-2 1-1 0-4 2-7 4-9 5-10 5-15 8-2 2-5 3-7 4-1 1-2 1-2 1 0 0-3 2-7 4-9 5-11 6-15 9-2 1-4 2-5 2 0 0-2 2-4 3-2 1-5 2-6 3-3 2-11 6-16 9-2 1-5 2-6 3-4 2-9 5-12 6-4 1-12 1-14 1z m12-27c2-1 9-5 16-9 6-4 14-8 16-9 2-1 5-3 6-3 1-1 2-2 2-2 1 0 3-1 7-3 3-2 6-4 6-4 0 0 1 0 2-1 2-1 4-2 7-3 3-2 25-14 31-18 2-1 8-5 15-8 18-10 18-10 23-13 3-1 6-3 8-4 4-3 13-7 15-9 1-1 4-2 5-3 1 0 3-1 4-2 1-1 4-2 7-3 2-2 4-3 5-3 0-1 7-4 10-6 3-2 3-2-7-8-3-1-6-3-6-3 0 0-2-1-5-2-2-2-6-4-8-5-7-4-10-5-14-7-2-2-3-3-4-3 0 0-2-1-4-2-3-2-10-6-17-10-7-4-14-7-15-8l-2-1-20 11c-11 6-21 12-21 12-2 1-43 23-46 25-2 1-5 3-5 3-1 1-3 2-4 2-1 1-3 2-4 3-1 0-4 2-7 3-2 2-5 3-5 3 0 0-3 2-6 3-2 2-5 3-6 4 0 0-1 0-1 0 0 0-2 2-5 3-2 1-6 3-8 5-2 1-4 2-5 2 0 0-2 1-4 3-2 1-5 2-6 3-1 0-2 1-3 2 0 0-3 1-7 3-3 2-5 3-5 3 0 0-2 1-3 2-2 1-5 3-7 4-2 1-5 2-6 3-2 1-5 3-6 4-5 2-5 3-2 5 2 1 5 3 7 4 3 1 5 2 5 2 0 0 1 1 3 2 1 1 4 3 6 4 2 1 5 2 6 3 1 0 3 2 5 2 1 1 3 2 4 3 1 0 4 2 6 3 3 2 5 3 6 3 0 0 2 1 4 2 1 1 4 3 6 4 1 1 4 2 6 3 2 1 4 3 6 4 9 5 12 5 19 2z m-116-59c1 0 4-2 7-4 3-1 7-3 9-4 1-1 5-3 7-4 2-2 6-4 8-5 10-5 12-7 13-7 1-1 6-3 18-10 2-1 5-3 7-4 7-4 10-5 13-7 2-1 5-3 8-4 2-2 10-6 17-10 16-9 18-10 24-13 2-1 5-3 7-4 3-2 8-5 16-9 2-1 5-3 7-4 3-2 6-4 9-5 2-1 4-2 4-2 0-1 2-2 4-3 2-1 6-3 8-4 2-1 4-2 5-3 2-1 1-2-7-7-10-5-9-5-16-8-2-2-6-4-9-5-2-1-6-4-9-5-3-2-5-3-5-3-1 0-2-1-4-2-1-1-4-3-6-4-2-1-5-2-6-3-2-1-4-2-6-3-2-1-4-2-4-3-2-1-10-5-11-5-1 0-2 1-8 4-2 1-4 3-6 4-2 1-5 2-6 3-2 1-4 2-5 3-2 0-3 2-4 2-1 1-4 2-7 4-2 1-5 3-6 3-2 1-3 2-3 2 0 0-3 1-7 3-3 3-7 5-9 6-7 3-10 5-11 5 0 1-3 2-10 6-3 2-5 3-5 3 0 0-2 1-4 3-4 2-6 2-10 5-3 2-8 4-12 6-1 1-3 2-3 3-1 0-3 1-5 2-3 1-6 3-7 4-2 1-5 3-8 4-3 2-7 4-8 5-2 1-4 2-5 2-1 1-3 2-4 3-2 1-6 3-12 6-2 1-4 3-6 4-1 1-3 1-3 1 0 0-1 1-3 2-2 1-5 3-6 4-11 5-11 6-11 7 1 0 8 4 18 10 2 1 4 2 4 2 1 1 2 2 4 2 3 2 22 12 26 15 1 0 4 2 6 3 3 2 6 4 8 5 2 1 5 2 7 3 2 2 5 3 7 4 3 2 4 2 6 1z m-94-70c2-1 5-3 6-3 1-1 2-2 2-2 0 0 2 0 3-1 2-1 4-3 6-4 2-1 5-2 6-3 2-1 4-2 6-3 2-2 5-3 7-4 1-1 3-2 3-2 0 0 3-1 6-3 3-2 6-3 6-4 1 0 2-1 4-1 1-1 3-2 4-3 2-1 8-4 13-7 5-3 11-6 13-7 2-1 10-6 18-10 18-11 41-23 43-24 3-2 17-10 18-10 0 0 3-2 6-4 3-1 6-3 7-4 1 0 2-1 3-1 2-1 10-6 10-6 0-1 0-49 0-108l0-108-1 0c-1 0-3 1-6 3-3 1-7 3-9 5-2 1-6 3-7 4-2 1-3 2-4 2 0 0-2 1-4 2-2 1-5 3-5 3 0 0-3 1-6 3-3 2-6 3-6 3 0 0-1 1-3 2-1 1-3 2-6 3-3 2-24 13-31 18-11 6-23 13-26 14-3 2-7 4-12 7-3 1-6 3-8 4-4 3-13 7-15 9-2 0-4 2-5 2-2 1-4 2-5 3 0 0-3 2-6 3-2 2-5 3-5 3 0 0-2 1-4 3-16 8-19 10-21 13l-1 3 0 105c0 58 0 106 0 106 0 2 2 1 6-1z m411-105l0-106-2-2c-1-3-5-5-31-19-1-1-4-3-5-4-1 0-2-1-2-1-1 0-5-2-10-5-5-3-10-6-11-6-1-1-3-2-4-3-5-2-9-5-13-6-1-1-3-2-3-3-1 0-3-1-6-2-2-2-5-3-6-4-1-1-2-1-3-1 0-1-3-2-6-4-3-2-6-3-6-3 0 0-2-1-3-2-2-1-5-3-7-4-4-2-7-4-13-7-3-1-6-4-8-5-3-1-5-2-5-2 0 0-2-2-4-3-2-1-5-2-6-3-1-1-4-2-5-3-1 0-4-2-5-2-1-1-3-2-5-3-2-1-4-3-5-3 0 0-2-1-4-2-6-4-10-6-13-8-2 0-3-1-4-1l-1 0-1 107c0 59 0 108 1 108 0 1 1 2 2 2 1 1 3 2 4 3 1 0 4 2 6 3 6 3 10 6 11 6 1 1 4 2 11 6 2 1 4 2 4 3 1 0 3 1 5 2 3 2 6 3 8 4 1 1 4 3 4 3 1 1 3 1 4 2 1 1 4 2 6 3 2 1 4 2 4 3 0 0 2 1 5 2 7 4 10 6 10 6 1 1 4 3 12 6 2 1 4 3 4 3 0 0 2 1 4 2 3 2 6 4 9 5 2 1 4 2 4 2 1 0 3 2 5 3 2 1 4 3 4 3 1 0 2 0 4 1 1 1 4 3 6 4 4 2 9 5 12 6 1 1 2 2 3 2 1 1 6 4 12 7 5 3 10 5 10 5 0 0 1 1 2 1 2 2 5 4 13 8 2 1 4 2 5 2 0 1 1 1 2 1 1 0 1-1 1-107z"/>
<glyph glyph-name="icon-41" unicode="&#79;" d="M13 507c-4-2-8-8-8-12 0-4 3-9 7-11 1-1 7-1 21-1 11 0 20-1 20-1 1 0 1-2 1-5 0-2 0-9 1-15 0-6 1-18 2-27 0-9 1-21 1-28 1-7 2-19 2-27 1-9 1-19 1-22 1-4 1-10 1-14 1-6 1-13 3-46 1-7 1-19 2-27 0-9 1-18 1-22 1-4 1-13 1-19 1-6 1-15 2-19 0-4 1-14 1-22 0-8 1-18 1-23 1-4 1-12 2-18 1-19 2-30 3-33 2-6 8-11 14-14 3-1 7-1 169-1l167 0 2 2c4 2 6 6 6 9 0 4-3 9-6 11-2 1-14 1-165 1-118 1-164 1-164 1-1 1-1 6-2 14 0 7-1 19-1 26-1 7-1 16-2 19 0 4 0 8 0 9 0 1 0 2 0 3 1 1 14 1 168 1 162 0 167 0 174 1 9 1 11 2 17 4 13 7 25 19 29 32 3 6 5 15 6 29 1 4 1 10 2 14 0 4 1 11 2 16 0 4 1 11 1 15 1 4 1 10 2 15 0 5 1 11 2 15 0 4 1 11 1 16 1 5 2 12 2 15 0 4 1 11 2 15 0 5 1 12 2 16 1 10 1 16-1 20-2 6-7 12-14 15l-3 1-203 0c-193 0-204 0-204 1 0 1-1 7-1 14-1 7-1 14-1 15 0 1-1 7-1 12-1 13-2 17-7 22-3 4-6 5-11 7-4 1-4 1-25 1-15 0-20 0-22 0z m469-97c1 0 1-2 0-9-1-3-2-10-2-14-1-5-1-12-2-16 0-4-1-11-2-16 0-4-1-11-1-15-1-3-1-10-2-15 0-5-1-11-2-15 0-4-1-11-1-16-1-5-2-10-2-13 0-2 0-5-1-7-1-12-3-28-5-33-3-7-10-15-18-18-7-3 2-3-179-3-94 0-170 0-170 0-1 0-1 4-2 12 0 6 0 15-1 19-1 13-2 33-3 49 0 8-1 21-2 28 0 7-1 19-1 28-1 8-2 20-2 27-1 6-1 15-1 20-1 7-1 8 0 8 2 0 398 0 399-1z m-341-360c-15-5-21-23-11-36 3-6 12-11 19-11 3 0 10 3 13 5 11 8 14 24 5 35-6 8-17 11-26 7z m217 1c-4-1-5-2-9-4-5-5-8-12-8-19 0-11 5-19 16-23 6-2 9-2 15 0 4 2 6 3 9 6 4 4 6 7 7 12 2 9-2 18-9 24-6 4-14 6-21 4z"/>
<glyph glyph-name="icon-42" unicode="&#80;" d="M253 501c-8-2-11-4-16-8-1-2-4-4-5-6-2-4-14-27-44-89-8-16-16-32-18-36l-4-7-2 0c-2 0-6-1-9-1-4-1-9-2-12-2-3-1-8-1-12-2-3 0-9-1-12-2-3 0-8-1-11-1-3-1-8-1-12-2-3 0-9-1-12-2-2 0-8-1-11-1-4-1-9-2-10-2-2 0-7-1-11-2-25-3-33-5-38-7-3-2-7-5-9-8-4-6-5-9-5-16 0-8 2-12 7-19 2-2 18-18 37-36 18-18 38-37 43-43 6-5 13-12 17-16l7-7-1-5c0-5-1-12-2-17-1-2-2-7-2-12-2-12-2-12-3-17-1-2-2-7-2-10-1-3-1-7-2-10 0-2-1-7-1-10-1-3-2-7-2-10-1-2-1-6-2-9 0-4-1-8-2-11 0-3-1-7-1-10-1-4-2-9-3-19-2-8-1-15 2-20 4-7 10-12 16-14 4-1 12-1 16 0 4 2 11 5 11 5 1 0 4 2 8 4 4 2 9 5 12 6 3 2 8 4 11 6 3 2 8 4 11 6 3 1 8 4 11 6 4 2 9 4 12 6 3 1 8 4 11 6 4 2 9 4 11 6 6 3 13 7 21 11 4 2 9 4 10 5 2 1 4 2 4 2 1 0 3-1 5-2 2-1 7-4 11-6 4-2 10-5 12-6 3-2 7-4 10-6 3-1 8-4 11-5 7-4 16-8 21-11 2-1 7-4 11-6 4-2 9-5 10-5 14-8 38-20 42-21 10-4 21-1 29 7 6 7 8 15 6 27-1 6-2 14-3 19 0 2-1 7-2 10 0 3-1 7-1 10-1 2-1 7-2 10-1 3-1 7-2 10 0 2-1 6-1 9-2 12-3 16-4 20-1 4-1 8-3 20-1 3-1 8-2 10 0 3-1 7-2 9 0 3-1 7-1 9l0 3 5 5c17 16 93 91 96 94 5 5 7 9 9 13 0 2 1 3 1 3 1-1 1 1 1 6 0 5 0 6-1 6 0 0-1 1-1 2-1 4-5 10-9 13-5 4-12 6-22 8-2 0-5 0-7 1-2 0-7 1-11 1-3 1-8 1-11 2-3 0-8 1-12 2-3 0-8 1-12 1-3 1-8 2-12 2-3 1-8 1-11 2-9 1-17 2-22 3-9 1-11 2-19 3-4 0-9 1-12 1-2 1-5 1-5 2-1 0-7 13-15 29-8 16-23 45-32 65l-19 37-4 4c-3 4-5 5-8 7-2 1-4 1-5 1 0 0-2 1-3 1-2 1-3 1-6 1z m4-38c1-1 9-19 25-50 5-11 15-30 21-44 7-13 12-24 13-25 0 0 1-2 2-4 2-4 8-10 12-12 3-2 6-2 13-3 4-1 9-2 12-2 3-1 8-1 11-2 4 0 9-1 12-2 3 0 8-1 12-1 3-1 9-2 11-2 10-1 17-2 20-3 2 0 5 0 6-1 6-1 16-2 33-5 12-1 16-2 16-2 1-1-2-4-7-8-19-19-32-32-52-51-38-38-43-43-45-47-4-7-4-13-1-26 0-4 1-10 3-20 1-3 1-7 2-10 0-2 1-7 1-10 1-3 2-7 2-10 1-2 1-7 2-10 0-3 1-7 1-8 1-2 1-5 1-7 1-1 2-8 3-14 1-7 2-13 2-14 1-3 2-10 3-16 1-6 1-9 0-9 0 0-1 0-2 1-2 1-6 3-10 5-3 2-9 5-11 6-3 1-8 4-11 6-4 2-9 4-12 6-2 1-7 4-10 5-3 2-8 4-11 6-3 1-8 4-11 6-4 2-9 4-12 6-3 1-7 4-11 6-7 4-15 8-19 10-6 3-10 4-16 4-6 0-9-1-20-7-5-2-12-6-15-8-3-1-7-4-9-5-2-1-7-3-12-6-5-2-10-5-13-6-2-1-6-4-9-5-2-2-7-4-10-5-2-2-8-5-11-6-4-2-9-5-12-6-2-2-7-4-9-6-11-5-15-7-15-7-1 0-1 3 0 8 0 2 1 7 1 10 1 3 2 8 2 10 1 3 2 8 2 12 1 4 2 8 2 8 0 0 0 2 0 4 1 3 2 9 3 15 2 14 4 22 4 26 1 2 1 5 1 6 1 3 2 9 4 19 0 3 1 7 1 9 3 15 3 23-3 31-2 3-11 11-67 66-34 33-35 34-35 35 0 1 1 1 6 2 3 0 7 1 10 1 3 1 9 2 12 2 4 1 9 1 12 2 2 0 7 1 11 2 8 1 17 2 24 3 12 2 26 4 35 5 4 1 9 1 11 2 3 0 8 1 12 2 3 0 8 1 9 1 4 2 8 5 12 8 3 4 2 2 58 115 4 8 7 15 7 15 1 1 3 1 3-1z"/>
<glyph glyph-name="icon-43" unicode="&#81;" d="M9 508c-5-1-9-7-9-12 0-1 1-4 1-5 1-2 14-15 49-51l48-48 0-3c0-1 0-5 0-7-1-2-2-9-3-14-1-6-2-13-3-16 0-3-1-9-2-15-1-6-2-13-3-16 0-2-1-7-1-10-2-13-3-16-4-20-2-11 0-34 4-48 2-7 3-10 5-15 16-38 51-69 96-84 16-5 34-9 48-10 3 0 6 0 6 0 1-1 1-106 0-107 0-1-12-1-48-1l-48 0-2-1c-4-2-7-5-8-9-1-4 0-8 3-12 4-4-6-4 117-4 111 0 112 0 114 1 4 2 7 7 7 12 0 3-2 8-5 10-4 3-2 3-54 3-46 0-47 0-48 1 0 1 0 18 0 54 0 59-1 53 4 53 7 0 29 4 40 7 6 2 14 4 20 7 4 1 6 2 7 2 0 0 34-33 75-74 41-41 75-75 76-75 1-1 3-1 6-1 4 0 5 0 7 1 4 4 6 6 6 12 0 3 0 4-2 6-1 2-111 112-244 246-224 223-243 242-245 243-4 1-7 1-10 0z m212-238c67-68 97-98 97-98 0-1-3-3-7-4-1 0-4-1-6-1-14-4-33-7-50-7-9 0-24 2-31 3-8 1-13 2-15 3-2 0-4 1-6 2-7 1-20 6-27 10-26 13-45 30-57 54-2 3-3 7-3 8-1 1-2 4-3 7-4 11-6 28-5 35 0 2 1 6 2 9 0 4 1 7 3 20 0 3 1 8 2 10 0 3 1 8 1 11 1 2 2 7 2 10 1 3 1 8 2 10 0 2 1 6 1 9 1 4 2 6 2 6 1 0 44-44 98-97z m9 238c-18-1-27-2-44-6-19-4-44-14-50-20-3-2-5-7-5-10 0-4 4-10 8-12 5-2 7-1 16 3 12 6 17 7 30 11 11 3 27 6 43 7 10 1 43 1 54 0 11-1 26-3 34-5 25-5 43-13 53-22 6-6 8-11 6-15-5-13-31-26-63-32-22-4-28-4-60-5l-29 0-2-1c-7-5-8-14-3-20 4-5 8-5 31-6 23 0 52 2 71 6 2 1 6 2 8 2 7 2 22 7 28 9 7 3 13 6 18 9 7 5 7 4 8 4 0-1 0-3 1-5 2-16 5-31 6-34 0-2 0-5 1-7 0-2 1-6 1-11 1-4 2-8 2-9 0-1 1-5 2-9 0-3 1-10 2-14 1-5 2-10 2-11 0-2 1-7 1-11 1-4 2-9 2-11 1-6 0-19-2-29-3-9-7-19-12-29-5-10 1-21 11-21 6 0 9 3 13 10 8 13 13 27 16 46 1 2 1 8 1 13 1 11 1 11-3 34-1 2-1 4-1 6-1 2-1 6-3 17-1 2-1 7-2 10-1 7-2 14-3 20-1 3-1 8-2 11-1 3-1 7-2 10-1 8-2 15-3 20-1 3-1 8-2 11-1 5-2 13-3 20-1 3-1 7-2 9 0 1 0 4-1 6-1 14-11 26-29 37-3 2-6 4-6 4-1 0-2 0-5 1-14 7-35 13-51 16-2 0-4 0-5 1-2 0-15 1-27 2-13 1-36 1-49 0z"/>
<glyph glyph-name="icon-44" unicode="&#82;" d="M325 507c-36-2-70-7-92-12-2 0-7-1-11-2-7-2-8-2-19-5-7-2-16-5-18-6-1-1-3-1-4-2-4-1-17-6-24-10-22-9-42-22-60-37-6-5-25-23-28-29-2-2-3-3-4-4 0 0-2-2-4-6-15-20-26-42-33-67-3-8-4-13-7-25-3-16-7-53-6-69 1-15 2-29 4-40 2-8 5-22 8-28 0-2 1-4 1-5 2-5 10-21 14-28 5-7 10-15 15-22 3-3 4-5 4-6 0-1 0-4-1-8-2-4-3-7-3-8 0-1-1-5-2-10-2-5-3-12-4-14 0-3-1-6-1-8-2-7-5-31-6-40 0-3 0-4 1-7 3-5 7-8 13-8 4 0 7 1 10 5 3 2 4 5 5 14 0 4 1 7 1 7 0 0 0 2 0 5 1 5 4 24 5 26 0 1 1 4 1 6 2 7 5 18 6 20l0 1 53 0c51 1 64 1 76 3 3 0 9 1 13 1 7 1 12 2 22 3 7 2 20 5 23 6 1 0 6 1 9 2 8 2 10 3 13 4 1 1 2 1 3 1 0 0 11 5 17 7 8 3 26 13 31 16 1 0 2 1 3 1 5 3 22 15 29 21 25 21 46 46 63 76 15 26 27 57 35 89 1 2 2 5 2 6 0 1 1 4 2 7 0 3 1 7 2 9 0 2 1 6 1 7 1 2 1 6 2 9 0 3 1 8 2 10 2 11 4 26 5 37 0 5 1 13 2 19 0 8 1 15 1 44l0 35-2 3c-2 3-4 4-7 6-2 1-9 1-76 1-55 0-77 0-85-1z m141-28c1-1 1-3 1-20 0-10 0-21-1-24 0-4 0-10-1-14-1-17-5-45-8-63 0-3-1-7-2-9 0-2-1-5-1-7 0-1-2-6-3-11-1-5-3-12-4-15-1-6-9-30-10-32 0-1-1-2-1-3-9-24-25-52-39-71-19-24-44-46-69-60-6-4-24-12-25-12 0 0-1-1-1-1-1 0-2-1-10-4-1 0-3-1-4-1-3-1-11-4-13-5-1 0-5-1-8-2-4-1-8-2-11-2-2-1-6-2-9-2-11-3-28-5-46-6-8-1-21-1-58-1-30 0-47 0-47 0-1 1 5 15 12 29 0 1 2 5 4 8 2 4 3 6 3 6 0 1 5 7 6 10 1 1 3 4 5 7 4 7 12 18 19 25 7 9 22 24 31 32 6 5 20 16 26 20 5 4 11 7 15 10 9 5 30 16 42 22 7 3 10 7 10 14 0 11-11 17-21 12-9-4-27-13-31-15-2-2-4-3-4-3-1 0-16-9-23-14-30-20-56-45-77-72-3-4-11-16-13-18 0-1-3-6-6-10-5-9-14-26-17-34-2-3-3-6-3-6-1 0-5 4-5 5 0 0 0 1-1 3-3 3-10 17-12 23-1 2-2 5-3 6 0 1-1 3-1 3 0 0 0 2-1 4-3 8-5 19-6 32-2 11-2 40 0 55 2 17 3 27 7 41 0 2 2 8 4 14 4 13 5 16 12 28 22 45 62 79 117 101 6 2 19 7 20 7 0 0 2 0 5 1 3 1 9 3 12 4 4 1 9 2 11 2 3 1 17 4 25 5 3 1 7 1 9 2 7 1 29 4 47 5 18 2 34 2 94 2 52 0 57 0 58-1z"/>
<glyph glyph-name="icon-45" unicode="&#83;" d="M250 509c-2-1-26-25-58-57-41-41-55-55-56-57-3-6 0-14 6-17 3-2 9-2 12 0 2 0 20 18 45 43 23 23 42 42 42 42 1 0 1-66 1-145l0-145 1-3c1-1 2-3 3-4 2-2 6-4 9-4 5 0 12 4 13 9 0 2 1 41 1 146 0 79 0 144 0 145 0 0 0 1 1 1 0 0 20-20 43-43 46-46 44-44 49-44 4 0 7 1 10 4 2 3 3 4 3 6 1 3 1 4 0 7-1 3-1 3-56 59-39 38-57 56-58 57-3 1-9 1-11 0z m-239-241c-4-1-7-3-9-7-1-2-1-8-1-87 0-73 1-85 1-91 2-13 5-21 8-29 9-18 26-35 44-43 9-5 19-7 34-9 11-1 326-1 336 0 18 2 29 6 41 13 19 11 34 31 39 50 5 19 5 17 6 111 0 75 0 82-1 84-3 7-9 10-16 8-3 0-4-1-6-3-1-2-3-4-3-5-1-2-1-20-1-72 0-69 0-95-2-102 0-2-1-5-1-7-1-5-3-11-4-15-3-4-8-12-12-16-11-10-21-16-36-18-11-2-35-2-186-2-149 0-150 0-157 1-14 3-19 5-29 11-7 5-17 16-21 25-2 4-4 11-6 18-1 8-1 9-1 91 0 70 0 83-1 85-1 5-5 8-9 9-2 1-4 1-4 1 0 0-1 0-3-1z"/>
<glyph glyph-name="icon-46" unicode="&#84;" d="M68 511c-1 0-2-1-6-1-6 0-13-2-18-3-12-4-25-14-33-26-6-10-9-17-10-34-1-8-1-375 0-383 1-17 4-24 11-35 4-6 11-13 18-18 10-6 17-9 33-10 9-1 376-1 384 0 17 1 24 4 35 11 11 7 21 20 25 32 1 4 3 12 3 18 0 6 1 7 1 7 1-1 1 72 1 187 0 160 0 187-1 187 0 1-1 2-1 6-1 14-4 22-11 32-8 12-20 22-32 26-4 1-12 2-18 3-6 0-7 1-6 1 0 1-84 1-187 1-161 0-188 0-188-1z m382-28c13-2 23-9 29-20 2-3 3-8 4-14 1-7 1-66 0-71-4-18-12-32-26-42-10-7-21-11-34-13-13-1-29 2-41 9-12 8-23 20-27 33-4 9-5 13-5 23-1 7-2 9-5 12-5 5-12 4-18 0-3-3-4-7-5-15-1-17-8-32-21-44-11-11-23-16-39-18-15-2-31 3-44 11-5 4-14 13-18 18-7 10-11 21-11 33-1 9-2 11-5 14-5 5-12 6-18 1-3-3-4-5-5-12 0-6-1-14-2-15 0-1-1-2-1-3-3-13-14-27-26-36-10-6-20-10-32-11-11-1-24 1-35 6-20 10-33 28-37 50-1 5-1 9-1 36 0 20 0 32 1 35 1 11 7 20 16 26 7 5 9 6 25 8 1 0 86 0 189 0 152 0 188 0 192-1z m-271-148c9-12 17-19 30-27 4-2 11-6 16-7 2-1 5-2 5-2 1 0 4-1 7-2 9-1 28-1 36 0 4 1 7 2 8 2 0 0 3 1 5 2 4 1 15 7 19 9 10 6 20 15 27 25 2 3 4 5 4 5 0 0 3-3 5-6 15-20 34-31 59-37 4-1 7-1 17-1 12 0 18 1 24 3 2 0 5 1 7 2 9 3 22 10 31 18 2 2 4 4 5 3 0 0 0-48 0-128 0-103 0-129-1-133-2-11-7-21-16-26-6-5-8-6-16-7-4-1-13-1-52-1-35 0-48 0-49 0 0 1-1 23-1 78 0 84 0 79-3 86-5 11-15 19-27 23-3 1-7 1-64 1-56 0-60 0-64-1-14-4-25-15-28-30-1-4-1-9-1-80 0-60-1-76-1-76-1-1-4-1-48-1-52 0-55 0-62 3-10 5-18 13-21 22-3 8-3 4-3 141 0 70 0 128 0 129 0 1 1 0 6-4 12-10 28-18 44-21 9-2 28-1 36 1 7 1 17 5 23 7 14 8 24 16 34 29 2 3 4 6 5 6 0 0 2-2 4-5z m130-147c7-1 9-2 12-7l1-3 0-151-133 0 0 76c0 84-1 77 3 81 2 2 4 3 9 4 5 0 103 0 108 0z"/>
<glyph glyph-name="icon-47" unicode="&#85;" d="M14 271c-12-6-14-21-4-29 2-1 4-2 5-3 3-1 19-1 241-1l237 0 4 2c10 5 14 16 7 25-1 3-5 5-8 6-3 1-15 1-241 1l-238 0z"/>
<glyph glyph-name="icon-48" unicode="&#86;" d="M268 489c-1 0-6-1-11-1-12-1-23-3-38-6-8-2-24-7-29-10-2-1-4-2-5-2 0 0-17-8-22-11-2-1-5-3-7-4-2-1-3-2-3-2-1 0-11-7-15-9-25-19-42-39-61-67-1-2-2-4-3-5 0 0-1-2-1-3-1-1-3-5-5-9-2-4-4-8-4-9-1 0-1-2-2-4-1-2-2-4-2-5 0 0-1-1-1-2 0 0-1-4-3-8-1-4-3-9-3-10-3-11-4-15-6-23-3-16-3-23-3-44 0-20 0-24 2-40 2-8 6-26 8-32 3-8 5-16 5-17 0-3-4-10-10-22-1-2-3-5-5-8-1-3-5-10-8-15-3-6-6-12-8-14-2-6-5-10-7-14-1-1-3-5-4-8-2-2-4-6-5-8-4-8-9-19-10-22-1-5-1-7 0-12 3-10 11-17 21-19 5 0 14 0 27 2 3 0 10 1 16 2 10 1 22 2 33 3 4 0 12 1 16 2 5 0 13 1 17 1 5 1 12 2 17 2 5 1 12 1 16 2 21 2 19 2 24 0 17-6 25-8 33-10 2-1 6-2 8-2 24-6 60-6 88-1 2 0 6 1 7 1 1 0 5 1 10 2 4 1 8 3 9 3 2 1 10 3 13 4 4 1 16 7 25 11 22 11 41 25 59 43 20 19 34 39 46 63 5 12 10 24 13 34 1 2 2 4 2 4 0 2 2 10 3 15 1 2 2 6 2 8 1 3 2 15 3 24 0 4 1 5 1 5 1 0 1 3 1 13 0 8 0 14-1 14 0-1-1 1-1 6-1 15-4 31-8 46-1 1-2 4-2 6-4 13-14 34-22 48-14 22-31 43-50 59-18 15-39 28-59 36-3 1-6 3-7 3-2 1-9 4-12 4-1 1-2 1-2 1-2 1-13 4-24 6-14 3-27 5-44 5-6 0-12 0-12 0z m24-27c12 0 32-4 39-6 2 0 5-2 9-3 29-9 57-25 79-46 27-26 44-53 56-87 2-7 2-9 4-15 4-19 5-27 5-50 0-22 0-30-5-49-1-4-2-8-2-9-1-2-2-4-2-6-1-2-2-4-2-5 0-1-1-3-2-4-14-37-36-67-66-91-19-15-40-26-63-33-21-7-38-10-61-11-14 0-23 1-36 3-11 2-17 3-28 6-2 1-4 1-5 1 0 1-5 2-9 4-5 2-9 3-10 3-8 2-9 2-16 1-9-1-21-2-34-3-5-1-12-2-16-2-15-2-18-2-25-3-4 0-9 0-12-1-5 0-15-1-29-3-5 0-12-1-17-2-12-1-14-1-15 0-1 0 0 2 6 13 1 2 3 6 5 9 1 2 2 5 3 5 0 1 1 3 3 6 1 2 4 8 6 12 2 3 5 9 6 11 1 2 6 11 12 21 15 28 15 28 15 38 0 7 0 8-3 18-7 18-10 31-12 46-1 8-1 43 0 50 2 12 5 27 7 33 1 1 2 4 2 7 7 22 22 49 38 68 15 18 30 31 50 44 2 1 4 2 5 3 1 0 3 1 5 2 10 6 30 14 40 17 2 1 5 1 5 2 2 0 8 2 14 3 18 4 37 5 56 3z m-137-143c-3-1-7-5-8-9-1-5 2-11 7-14l2-2 112 0 2 2c3 2 6 5 7 9 1 5-2 11-7 14l-3 1-55 0c-51 0-54 0-57-1z m1-91c-4-1-8-5-9-9-1-5 1-9 4-12 4-4-4-4 100-4 69 0 94 0 95 1 3 1 5 3 7 5 1 2 2 3 2 7 0 3-1 4-2 7-2 3-4 4-8 5-3 2-185 2-189 0z"/>
<glyph glyph-name="icon-49" unicode="&#87;" d="M123 511c0 0-2-1-3-1-3 0-8-2-12-3-3-1-10-6-12-8-1-2-16-21-32-43-34-45-35-46-38-61-1-4-1-12-1-169l0-165 1-7c2-10 3-12 5-18 8-15 21-27 36-31 6-2 14-3 26-4 10-1 314-1 325 0 21 1 32 4 42 12 9 7 15 14 19 22 3 7 4 9 6 19l1 7 0 165c0 156 0 165-1 169-2 8-5 16-9 22-1 2-34 46-36 48 0 0-5 7-11 16-13 17-15 19-20 22-5 4-10 6-18 7-2 0-3 1-3 1 0 1-28 1-133 1-114 0-132 0-132-1z m267-34c3-1 47-60 47-62 0 0-81 0-182 0-100 0-182 0-182 0 0 0 1 1 1 2 1 1 43 57 45 59 0 1 2 1 3 2 0 0 1 0 2 0 0 0 60 0 133 0 115 0 132 0 133-1z m64-245c1-157 0-171-2-178-1-5-3-7-6-11-6-7-12-9-24-10-12-1-321-1-332 0-5 0-10 1-12 2-9 2-17 10-19 19-3 7-3 18-3 176 0 84 0 153 1 153 0 0 89 0 199 0l198 0z m-298 87c-4-1-9-5-10-9-2-2-2-3-2-11 0-9 1-13 3-22 6-23 17-42 36-59 12-10 30-19 46-23 12-3 13-3 26-3 13 0 14 0 21 2 24 5 43 15 60 32 11 12 21 28 26 43 3 12 4 20 5 30 0 8 0 9-2 11-2 4-4 6-7 8-2 1-4 1-7 1-5 0-7-1-11-4-3-3-4-6-5-14-1-9-1-13-3-18 0-3-1-5-1-6-1-1-2-5-4-9-8-16-21-29-37-36-7-4-10-5-14-6-1 0-3 0-4-1-1 0-5-1-9-1-24-2-48 7-65 24-7 7-12 15-17 26-3 7-4 16-5 27-1 9-3 12-9 16-2 2-8 2-11 2z"/>
<glyph glyph-name="icon-50" unicode="&#88;" d="M46 484c0 0-3-1-6-1-10-1-19-6-26-13-8-9-11-16-13-29-1-8-1-40 0-45 1-7 2-10 4-15 4-7 8-12 19-21 5-4 35-30 49-42 3-2 6-5 8-7 1-1 3-3 3-3 3-2 7-6 10-8 2-2 4-4 4-4 0 0 3-2 5-4 2-2 4-3 4-4 0 0 6-5 14-12 30-25 33-28 35-30 1-1 6-5 10-9 4-3 8-7 8-7 0-1 0-40 0-87 0-56 1-86 1-88 2-13 11-23 23-27 7-3 17-2 26 1 8 3 24 10 25 10 1 1 5 2 9 4 4 1 9 3 11 5 3 1 7 2 9 3 2 1 6 2 8 3 3 1 9 4 13 5 5 2 9 4 10 4 0 0 2 1 4 2 11 4 18 12 22 22 2 6 2 11 2 78l0 65 3 3c1 1 5 4 7 6 3 3 6 5 6 6 1 0 23 19 27 23 4 3 20 17 22 19 1 1 4 3 6 5 2 2 4 4 5 4 0 0 2 2 4 4 2 2 5 4 6 5 2 2 5 4 7 6 7 6 26 23 38 33 32 27 33 29 38 38 2 4 2 5 3 10 1 6 2 7 2 6 1 0 1 5 1 20 0 15 0 19-1 19 0 0-1 2-1 5-2 10-4 17-9 23-6 8-14 14-22 16-9 3 3 3-222 3-116 0-211 0-211 0z m417-47c0-1 1-5 1-18l0-17-3-2c-3-3-7-7-15-14-3-2-9-7-13-11-5-4-9-8-10-9-1 0-3-2-5-4-1-1-4-3-6-5-2-2-9-8-17-15-7-6-18-15-23-20-10-9-24-21-35-31-6-5-7-5-9-7-11-9-25-22-28-26-5-5-8-12-9-20-1-4-1-16-1-68 0-35 0-64 0-64-1 0-2-1-3-2-2 0-4-1-5-1-2-2-9-4-18-8-5-2-10-4-13-5-3-1-6-2-7-3-1 0-5-2-8-3-4-2-8-3-9-4-2 0-3-1-4-1-1-1-1-1-2 0 0 1 0 32 0 77 0 90 0 84-6 96-3 5-7 10-16 18-3 2-6 6-8 7-2 1-5 4-7 6-2 1-5 5-8 7-2 2-5 5-6 5-2 1-4 3-5 4-1 2-4 4-7 6-2 2-5 5-6 6-2 2-9 7-15 13-6 5-17 14-23 20-7 5-15 13-19 16-4 4-8 7-8 7-1 1-14 12-22 19-8 7-13 11-15 14l-3 2 0 17c0 13 0 17 1 18 1 1 414 1 415 0z"/>
<glyph glyph-name="icon-51" unicode="&#89;" d="M247 498c-6-3-8-4-11-7-5-5-5-4-60-116-6-12-9-19-10-19-1-1-3-1-5-1-2 0-6-1-9-1-5-1-9-2-22-4-7-1-14-2-24-3-3-1-9-2-12-2-9-1-16-2-23-3-3-1-9-2-12-2-2-1-7-1-11-2-20-3-25-4-31-6-7-4-12-11-15-20-1-5-1-7 0-12 3-9 7-14 26-32 6-6 14-14 18-18 4-4 11-11 16-16 5-4 15-13 21-19 23-23 29-29 29-29 0-1-1-2-1-4 0-2-1-6-1-8-1-3-2-8-2-11-2-10-3-14-4-19-1-6-2-12-3-20 0-3-1-7-2-10 0-3-1-8-1-10-1-3-2-6-2-8 0-2-1-6-1-9-1-3-1-6-2-8 0-2-1-9-3-17-2-12-2-14-2-21 0-7 1-8 2-12 7-13 21-19 34-15 8 3 8 3 32 16 3 1 8 4 12 6 3 1 8 4 11 6 2 1 7 3 11 5 4 2 9 5 11 6 5 3 12 7 22 12 4 2 13 6 19 10 12 6 15 7 16 6 1-1 5-3 17-9 4-2 9-5 12-6 2-2 6-4 9-6 3-1 8-4 11-5 3-2 8-4 12-6 4-2 9-5 11-6 3-2 9-5 14-7 4-3 9-5 9-5 0-1 5-3 11-6 5-3 10-5 11-6 1 0 8-4 12-5 10-3 20 0 28 8 4 4 7 8 8 13 1 4 0 16-1 21-1 3-1 7-2 10-2 13-2 15-3 20-1 3-2 8-2 10 0 2-1 7-2 10 0 3-1 8-1 10-1 3-2 7-2 10-1 3-1 8-2 10 0 2-1 7-2 10 0 3-1 8-1 10-1 2-1 7-2 10-1 3-1 7-2 10 0 2-1 5-1 7l0 3 11 12c7 6 14 14 17 16 10 10 47 45 53 51 22 22 25 26 28 35 1 4 1 11-1 16-4 10-11 16-22 18-5 2-12 3-34 6-4 0-9 1-11 2-3 0-6 0-7 0-1 0-3 1-6 1-2 1-7 2-11 2-4 1-9 1-12 2-3 0-9 1-12 1-3 1-8 2-11 2-3 1-8 1-12 2-3 0-8 1-11 2-3 0-7 1-9 1-2 0-4 0-4 1-1 0-3 3-7 11-3 6-10 21-16 33-6 12-16 32-22 43-19 39-20 41-24 46-5 6-13 10-21 10-4 0-5 0-9-1z m11-42c0-2 6-12 11-24 6-11 16-31 22-44 23-47 25-51 28-54 2-4 8-8 12-10 5-1 6-1 29-5 3 0 8-1 11-1 3-1 7-1 8-1 2-1 4-1 6-1 1-1 6-1 10-2 3 0 9-1 11-1 3-1 9-2 12-2 4-1 9-1 11-2 3 0 5-1 7-1 1 0 3 0 6 0 2-1 7-2 11-2 10-2 17-3 17-3 0-1-6-7-14-15-9-8-17-16-19-18-1-1-11-11-21-21-10-9-24-23-32-31-13-13-14-14-16-18l-2-5 0-7c0-5 0-9 1-12 1-2 1-7 2-10 0-3 1-7 2-10 0-2 0-4 0-5 0-1 1-3 1-5 1-2 2-7 2-10 1-3 1-7 2-10 1-5 2-12 3-20 1-3 1-7 2-10 0-2 1-7 2-10 2-16 3-22 5-29 0-4 1-5 0-6 0 0-3 1-9 4-11 6-18 9-21 11-1 1-6 3-11 6-8 4-16 8-24 12-3 2-7 4-10 6-8 4-18 9-23 12-3 1-10 5-16 8-11 5-14 6-21 6-6-1-9-2-25-11-2-1-7-3-10-5-4-2-9-5-11-6-3-1-8-4-11-6-4-2-9-4-11-6-3-1-8-3-11-5-8-4-16-8-22-12-4-2-12-6-24-12-3-2-5-2-5-2 0 0 0 5 2 13 0 3 1 7 2 10 0 3 1 8 1 10 1 3 1 7 2 10 2 12 3 16 3 20 1 3 2 7 2 10 1 6 2 12 4 20 0 2 1 7 1 10 2 11 3 15 4 19 0 2 1 7 1 10 1 7 0 12-2 18-2 4-5 7-38 39-25 24-43 42-48 46-2 2-6 7-10 10-3 3-6 6-6 7 0 0 6 1 17 3 8 1 17 2 23 3 3 1 9 1 12 2 4 0 9 1 11 2 3 0 5 0 6 0 1 0 4 1 7 1 3 1 8 2 11 2 4 1 9 1 12 2 9 1 16 2 24 3 15 2 20 4 26 10 4 4 3 2 41 79 26 53 24 49 25 49 0 0 1-2 2-3z"/>
<glyph glyph-name="icon-52" unicode="&#90;" d="M250 510c-2 0-11-2-16-4-2 0-7-1-12-2-4-1-9-2-10-2 0 0-3-1-6-2-9-2-12-2-15-3-2 0-6-1-8-2-7-1-12-2-16-3-1-1-5-2-9-2-3-1-6-2-7-2-2 0-8-2-19-4-2-1-5-1-7-2-4 0-18-3-20-4-2-1-7-2-15-3-2-1-5-1-6-2-1 0-3-1-5-1-4-1-19-4-19-4-1 0-4-1-13-3-18-4-25-6-31-11-4-3-9-8-10-10-3-6-4-8-5-13-1-5-1-8-1-38 0-38 0-41 5-50 3-5 9-11 14-14 2-1 6-3 8-4 4-1 15-2 22-2 3 0 4-1 4-2 1-1 1-185 0-186 0-1-3-1-8-1-9 0-17-1-22-4-10-5-18-13-21-23-2-7-2-11-2-40 0-33 0-38 5-46 4-8 13-16 22-19 7-2 2-2 229-2 157 0 217 0 220 1 8 1 14 3 18 7 3 2 8 7 10 9 3 5 5 9 6 16 0 3 1 4 1 4 1 0 1 7 1 30 0 23 0 30-1 30 0 0-1 1-1 4-1 7-3 11-7 17-3 5-11 11-16 13-5 2-13 3-21 3-5 0-8 0-8 1-1 1-2 185-1 186 1 1 2 2 4 2 7 0 18 1 22 2 14 4 25 17 27 31 0 2 1 4 1 4 1 0 1 5 1 33 0 25 0 33-1 33 0 0-1 1-1 4-1 3-2 6-3 10-3 5-4 7-8 11-4 4-6 5-10 7-5 2-13 5-26 7-4 1-8 2-17 4-4 1-8 2-11 2-2 1-5 2-7 2-1 0-5 1-7 2-6 1-11 2-18 4-4 0-7 1-8 1-2 1-4 1-6 2-1 0-4 1-7 1-5 1-15 4-21 5-2 0-7 1-10 2-4 1-7 2-8 2 0 0-1 0-3 1-5 1-19 4-21 4 0 0-3 1-6 2-10 2-12 2-15 3-2 0-7 2-11 2-4 1-8 2-10 3-14 3-21 4-27 3z m12-28c3 0 8-1 12-2 3-1 7-2 8-2 1 0 4-1 6-2 8-1 13-2 16-3 7-2 11-2 15-3 3-1 6-2 8-2 3-1 6-1 16-4 2 0 5-1 7-1 2-1 6-2 9-2 3-1 7-2 8-2 3-1 9-2 14-3 8-2 12-3 14-3 1 0 5-1 10-2 5-1 9-2 10-3 1 0 6-1 10-2 5-1 9-2 11-2 1-1 4-1 6-2 10-2 12-2 15-3 2-1 6-1 8-2 8-2 12-3 15-5 4-4 4-2 4-39 0-33 0-33-1-36-2-3-5-6-8-7-4 0-436 0-439 1-3 1-6 3-8 6-1 3-1 4-1 34 0 37 0 37 4 41 3 2 6 3 15 5 3 1 6 1 7 2 2 0 5 1 8 2 5 1 11 2 14 3 3 1 18 4 21 4 2 1 3 1 3 1 1 0 4 1 7 2 3 0 7 1 9 1 3 1 6 2 15 4 3 0 6 1 8 2 2 0 7 1 12 2 4 1 9 2 11 3 2 0 5 1 7 1 2 1 6 2 9 2 2 1 6 2 7 2 2 0 5 1 7 2 11 2 13 2 16 3 2 0 5 1 7 2 5 1 11 2 16 3 2 1 5 1 8 2 7 2 12 3 14 3 2 1 4 1 10-1z m-88-254l0-93-93 0 0 93c0 51 0 93 0 94 0 0 10 1 47 0l46 0z m135 0l0-93-107 0 0 93c0 51 0 93 0 94 0 0 11 1 54 0l53 0z m121 0l0-93-94 0 0 93c0 51 0 93 0 94 1 0 10 1 47 0l47 0z m42-121c5-1 8-2 10-7l2-3 0-29c0-33 0-33-4-37-4-4 15-4-225-4-238 0-220 0-224 4-4 4-4 2-4 35 0 25 0 29 1 32 1 5 5 8 10 9 5 1 429 1 434 0z"/>
<glyph glyph-name="icon-53" unicode="&#48;" d="M17 510c-4-1-6-2-9-6-5-5-7-12-4-19 3-5 7-9 14-10 1 0 9-1 18-1 18 0 16 1 17-6 1-3 2-7 2-10 1-7 2-14 5-36 0-3 1-8 2-12 1-9 2-17 3-24 1-4 1-9 2-13 0-3 1-8 2-12 0-4 1-9 1-13 1-3 2-8 2-12 0-4 1-9 2-13 0-3 1-8 1-12 1-4 2-10 2-13 1-3 1-8 2-12 0-4 1-10 1-13 1-3 2-9 2-13 1-3 2-9 2-13 0-3 1-8 2-12 5-41 6-48 8-56 1-3 4-11 5-14 7-11 17-22 29-27 7-4 11-5 20-6 6-1 16-1 134-1 104 0 129 0 134 1 13 2 21 5 31 12 9 7 14 13 19 23 4 8 7 19 10 40 1 2 2 6 2 9 1 2 1 7 2 9 0 3 1 7 2 9 0 2 1 6 1 9 1 3 2 7 2 9 0 2 1 6 2 9 0 3 1 7 1 9 1 2 2 6 2 9 1 3 1 7 2 9 0 2 1 6 2 9 1 6 2 12 3 17 0 3 1 7 2 9 1 7 2 12 5 28 0 2 1 6 1 9 2 9 3 14 4 17 2 7 2 11 0 16-3 9-9 17-17 20-7 2 2 2-201 2-108 0-192 1-193 1-1 0-2 3-4 19 0 3-1 9-2 12 0 3-1 8-1 12-4 30-5 32-8 37-4 6-9 10-16 13l-4 1-22 0c-12 0-23 0-24 0z m456-131c0 0-1-3-1-7-1-3-2-8-2-11-1-2-2-7-2-9-2-8-3-13-4-17 0-2-1-6-1-9-1-7-3-13-4-18 0-2-1-6-1-9-1-3-2-7-2-9 0-2-1-6-2-9 0-3-1-7-2-9-1-8-2-13-3-18 0-3-1-7-2-9 0-4-1-10-3-17 0-3-1-7-2-10 0-3-1-7-1-9-1-2-2-6-2-9-2-8-3-11-4-15-3-9-11-15-20-17-5-1-259-1-265 0-8 1-16 7-19 14-3 6-5 16-8 41 0 4-1 10-2 13 0 3-1 9-1 13-1 4-1 9-2 12 0 4-1 9-2 13 0 4-1 9-1 12-1 4-2 9-2 13-1 3-1 9-2 12-1 7-2 14-3 25-1 4-1 10-2 12 0 3-1 6-1 7 0 1 0 6-2 18-1 4-1 6 0 6 0 1 34 1 185 1 162 0 184 0 185-1z m-292-296c-12-2-23-8-29-18-12-18-8-42 8-55 12-10 28-12 42-6 11 4 18 12 24 24 1 3 2 10 2 14 0 5-2 13-4 19-5 10-16 18-27 21-4 1-12 2-16 1z m10-37c3-4 1-9-4-9-2-1-3-1-4 1-2 1-2 2-2 4 0 2 0 3 2 4 1 2 2 2 4 2 2-1 3-1 4-2z m179 37c-9-1-17-5-24-13-13-13-15-33-5-49 8-14 25-22 40-20 5 1 10 2 13 4 1 0 2 1 3 1 3 1 9 7 12 11 9 12 11 28 5 42-3 7-7 12-13 16-2 2-6 4-9 5-6 3-15 4-22 3z m10-37c2-2 2-6 0-8-3-3-10-1-10 4 0 2 2 5 3 5 2 1 6 0 7-1z"/>
<glyph glyph-name="icon-54" unicode="&#49;" d="M133 511c0 0-1-1-2-2-2-1-4-2-5-3-3-2-119-118-121-121-2-3-5-9-5-12 0-3 1-6 3-11 1-1 20-21 62-63 65-65 63-63 70-65 15-2 28 12 25 26-1 7-1 6-43 49-22 22-40 40-40 41 0 1 240 1 251 0 20-2 40-8 58-17 5-4 5-4 12-8 9-6 14-10 24-19 15-16 24-29 32-48 3-6 5-13 8-22 6-23 6-59-1-80 0-1-1-4-2-5-1-3-4-12-5-14 0-1-2-4-3-6-2-5-5-10-9-17-1-1-3-4-6-7-12-18-29-33-49-44-8-4-19-9-28-12-2 0-4-1-5-1-2-1-5-1-14-3l-8-2-157 0c-86 0-157-1-158-1-4-1-9-4-12-8-2-2-2-4-4-9-1-3-1-7 1-11 1-4 2-5 5-8 3-4 5-5 8-6l3-1 155 0c145 0 154 0 161 1 15 2 29 5 35 7 2 0 5 1 7 2 14 4 31 13 44 21 19 12 38 30 51 48 5 6 11 16 11 16 0 1 1 1 1 2 2 1 8 15 11 22 8 18 14 40 16 60 0 6 1 7 1 6 1 0 1 4 1 11 0 9 0 12-1 12 0-1-1 2-1 6 0 4-3 20-5 28-13 54-48 101-98 128-4 2-11 5-18 9-6 2-19 6-28 8-8 2-10 3-21 5-7 1-8 1-135 1-85 0-128 1-128 1 0 0 17 18 38 39 21 21 39 39 41 41 4 6 6 11 4 17-1 8-5 14-13 17-1 1-3 2-3 2 0 1-1 1-5 1-4 0-6 0-6-1z"/>
<glyph glyph-name="icon-55" unicode="&#50;" d="M256 512c1-1 2-1 2 0 1 0 1 0-1 0-1 0-2 0-1 0z m-7-2c-19-3-33-16-38-34-7-22 4-46 26-56 8-4 20-5 29-3 10 2 21 8 27 16 5 7 7 11 10 20 1 5 2 14 1 17 0 1-1 4-2 6-5 18-20 31-39 34-5 1-9 1-14 0z m11-36c3-1 7-4 7-7 1-1 1-3 1-5 0-4-2-6-5-9-2-1-3-1-6-1-8 0-13 5-12 14 1 6 9 11 15 8z m-12-172c-7-1-9-2-14-5-9-4-17-13-21-23-3-8-4-11-4-19 0-6 0-8 2-13 5-15 15-26 31-32 15-5 32-2 44 9 9 7 13 14 17 26 1 5 1 6 1 12 0 12-5 23-14 32-8 7-14 11-25 13-6 1-11 1-17 0z m14-36c3-2 5-5 6-9 0-6-2-11-8-13-6-2-14 2-15 9-1 5 2 11 6 13 4 2 7 2 11 0z m-17-172c-10-2-20-9-26-17-4-5-7-13-9-18-1-6-1-17 0-23 3-9 7-15 13-21 8-8 17-13 29-14 11-2 25 2 34 10 8 7 13 14 17 25 2 9 2 15 0 23-5 16-14 26-28 32-8 4-20 5-30 3z m17-36c2-1 5-4 5-6 1-2 1-7 0-9-1-3-6-7-10-7-5 0-10 3-12 8-2 5 0 11 5 14 2 1 3 1 6 1 3 0 5 0 6-1z"/>
<glyph glyph-name="icon-56" unicode="&#51;" d="M242 508c-17-1-36-4-55-9-2-1-4-2-5-2-1 0-4-1-8-3-4-1-8-2-10-3-2-1-3-2-4-2-1 0-20-9-26-13-2-1-4-2-5-2 0 0-1-1-2-2-1 0-2-1-3-1-1-1-11-7-16-11-3-2-17-13-20-16-3-3-18-18-21-21-3-4-13-16-16-20-3-5-10-15-11-16 0-1-1-2-1-3-1-1-2-2-2-3 0 0-2-3-3-5-3-5-10-19-11-23-1-2-2-5-3-7-1-2-2-5-3-6 0-1-1-2-1-3 0 0 0-2 0-3-3-6-9-28-11-41-2-16-2-21-2-41 0-20 0-24 2-40 2-13 8-34 10-41 1-1 2-3 2-5 2-5 3-7 4-10 0-1 1-2 2-3 2-5 2-6 5-12 4-7 7-15 9-17 1-1 1-2 2-3 2-4 12-19 17-26 24-30 54-54 88-72 9-4 15-7 15-7 1 0 2 0 2 0 1-1 3-2 5-2 1-1 3-1 4-2 4-1 20-6 28-8 12-3 8-3 61-3 43 0 48 0 52 1 2 0 5 1 7 2 7 1 24 6 29 8 1 1 3 1 4 2 1 1 3 1 4 2 1 0 3 1 4 1 5 2 18 9 22 11 2 1 3 2 4 2 4 2 20 12 28 19 14 10 31 26 40 38 11 12 10 12 18 24 4 5 8 12 11 18 4 7 12 24 12 25 0 0 1 1 1 2 1 1 1 2 4 8 0 2 1 4 1 5 2 4 5 16 6 20 1 1 1 5 2 7 2 10 2 12 2 60 0 41 0 46-1 49 0 2-1 5-2 8-1 6-2 9-6 20-5 16-5 14-10 27-6 13-15 28-26 43-1 3-10 14-11 15 0 0-3 2-5 6-10 11-26 25-40 35-4 4-15 11-18 12-1 1-2 2-2 2-2 1-11 6-18 9-9 5-12 6-19 9-3 1-6 2-7 3-1 0-2 0-2 0-1 0-2 1-3 1-5 2-19 6-31 9-19 4-45 5-67 4z m43-30c11-1 20-3 28-5 8-2 10-3 18-5 4-2 8-3 9-4 1 0 4-1 7-2 5-3 19-9 23-12 2-1 3-2 4-2 0 0 1 0 1-1 1 0 4-3 8-5 13-8 23-17 35-28 16-16 27-31 39-51 9-16 17-36 21-54 1-2 1-5 2-7 0-1 1-3 1-4 0 0 0-3 1-5 2-10 3-27 3-40 0-13-1-31-3-41-1-2-1-5-1-5 0-1-1-3-1-4-1-2-1-5-2-7-1-5-2-9-4-14-1-2-2-4-2-5-2-7-11-27-15-34-1-1-2-3-3-5-1-2-2-4-3-5 0-1-1-2-1-2 0 0-1-1-2-2 0-2-1-3-2-3-2-4-12-17-14-19 0 0-1-2-3-4-8-10-28-27-38-34-6-4-11-8-12-8-7-5-11-7-18-11-10-5-22-10-27-11-1-1-3-1-5-2-5-2-9-3-14-4-2-1-5-2-7-2-2-1-3-1-4-1-1 0-3 0-5-1-10-2-28-3-41-3-13 0-31 1-40 3-3 1-5 1-5 1-1 0-3 0-4 1-2 0-5 1-7 2-39 10-75 30-104 59-16 16-26 29-39 52-5 9-12 24-16 36-3 9-5 17-7 25-3 18-4 27-4 48 0 20 1 31 4 47 2 10 8 29 9 30 0 1 1 1 1 2 0 2 11 26 15 33 1 1 2 3 2 3 0 1 1 2 4 7 1 2 2 3 2 4 0 0 2 2 4 5 18 24 38 44 62 59 2 2 5 3 5 4 1 0 2 1 3 1 6 4 21 12 29 15 2 0 4 1 5 2 1 0 2 0 2 0 1 0 1 1 2 1 0 0 10 4 16 5 16 5 31 7 45 8 11 1 35 0 43-1z m79-139c-1 0-3-1-4-1-1-1-29-28-70-69-37-37-68-68-68-68 0 0-15 15-32 32-30 30-32 32-35 33-5 2-6 2-10 0-9-3-12-12-8-20 1-2 74-75 77-78 1-1 3-2 5-2 3-1 4-1 7 0l4 1 75 76c72 72 75 75 76 78 1 4 1 5 0 8-2 6-7 10-12 10-2 0-4 0-5 0z"/>
<glyph glyph-name="icon-57" unicode="&#52;" d="M250 511c0 0-2-1-3-2-3-1-8-5-9-9-1-1-2-3-2-5 0-2 0-42 0-136 0-97-1-133-1-133-1 0-21 20-50 49-40 40-50 49-52 51-3 1-4 1-8 1-9 0-14-3-18-10-2-3-2-4-2-9 0-5 0-6 2-9 1-2 14-15 68-70 37-37 68-68 70-69 4-2 7-3 12-3 8 1 3-4 77 71 57 56 68 68 70 71 2 3 2 4 2 9 0 5 0 6-2 9-2 4-5 7-10 9-4 2-10 2-15 0-3-1-6-4-53-51-33-33-50-49-50-49 0 1-1 46-1 135l0 135-1 3c-2 4-6 9-10 10-2 1-3 2-3 2 0 1-1 1-6 1-4 0-5 0-5-1z m-236-315c-5-2-10-6-13-11l-1-3 0-42c0-42 0-46 2-60 1-7 4-17 6-21 10-23 26-39 46-49 12-6 20-7 39-9 8-1 318-1 325 0 17 1 27 4 34 7 22 10 39 26 49 46 5 11 8 22 9 37 0 4 1 5 1 6 1 0 1 85 0 85 0 0-1 2-2 3-1 4-5 7-9 9-2 2-3 2-8 2-6 0-6 0-10-2-2-1-4-3-6-5-4-6-4-4-4-47 0-56-1-63-10-76-6-9-16-18-25-22-2-1-6-2-9-2-13-3-16-3-174-3-136 0-150 0-159 1-15 1-21 3-29 9-9 5-18 16-22 25-4 10-5 20-5 68 0 43 0 41-5 47-3 4-8 7-13 7-3 0-6 0-7 0z"/>
<glyph glyph-name="icon-58" unicode="&#53;" d="M161 509c0 0-4 0-7 0-10-2-16-3-24-7-11-6-21-17-27-28-2-5-4-9-5-17-1-6-1-10-2-36 0-21 0-30-1-30 0-1-2-1-5-1-9 0-27-3-34-6-8-3-13-6-20-12-14-10-25-25-30-41-4-16-5-34-5-97 0-39 0-55 2-65 1-12 5-22 11-32 4-7 7-11 14-17 16-16 35-24 58-25 4-1 9-1 9-1 1-1 1-2 1-11 0-25 2-37 7-48 2-4 7-11 11-16 2-2 10-8 13-10 5-3 14-7 21-8 2 0 33-1 106-1 95 0 104 0 110 1 12 2 22 7 32 16 6 5 10 11 13 18 5 9 7 17 7 35 1 8 1 16 1 18 0 3 0 5 1 5 0 1 3 1 9 2 8 0 17 1 21 3 1 0 3 1 4 1 16 6 33 18 44 33 7 11 13 24 14 35 0 2 1 3 1 3 1 1 1 138 0 139 0 0-1 1-1 4 0 5-2 12-3 17-7 25-31 48-56 56-7 2-21 4-28 4-2 0-5 0-5 1-1 0-1 2-1 18 0 36-1 51-6 61-1 2-6 12-7 12 0 1-1 2-3 4-6 9-19 18-31 21-11 2-8 2-111 2-53 1-97 0-98 0z m195-36c3-1 7-1 8-2 7-3 13-10 15-17 2-5 2-16 2-39 0-17 0-23-1-23 0-1-246-1-247 0-1 0-1 46 0 55 0 9 3 14 9 20 4 3 7 5 13 6 5 1 12 1 101 1 84 0 95 0 100-1z m78-120c9-2 14-3 20-8 5-4 8-7 11-11 3-4 7-11 7-13 0 0 0-1 1-2 0-1 1-5 2-9 1-8 1-11 1-71 0-63 0-64-1-68-4-13-12-25-22-32-9-6-15-8-27-9-6 0-7 0-8 0-1 1-1 6-1 19-1 18-2 24-4 30 0 2-1 3-1 4 0 0-2 5-4 9-5 8-12 16-20 21-9 6-16 9-28 11-8 1-198 1-207 0-14-2-24-6-33-14-8-7-13-13-17-21-5-10-6-18-7-41 0-13 0-17-1-18 0 0-3 0-8 0-15 1-25 6-35 16-5 5-10 13-12 19-3 9-3 9-3 76 0 66 0 69 3 78 2 9 8 17 16 24 9 7 18 10 32 11 4 1 82 1 174 1l166 0z m-77-165c3-1 6-1 7-2 8-4 13-10 15-17 2-6 2-16 2-57 0-57 0-59-8-68-5-4-9-7-15-8-4-1-10-1-101-1-92 0-98 0-102 1-6 1-10 3-14 7-4 3-6 8-8 13-1 4-1 7-1 56 0 48 0 52 1 56 2 5 4 9 8 12 4 5 8 7 14 8 2 0 4 1 5 1 0 0 43 0 96 0 86 0 96 0 101-1z m-35 119c-5-2-8-5-10-9-2-3-2-4-2-8 0-4 0-5 2-8 2-4 5-7 9-8 2-1 4-2 42-2 39 0 40 1 43 2 14 6 14 25 0 32l-2 1-40 1c-34 0-40 0-42-1z"/>
<glyph glyph-name="icon-59" unicode="&#54;" d="M20 487c-13-3-22-17-19-28 0-1 0-4 1-6 1-3 2-8 3-11 1-2 2-5 5-15 1-2 5-15 10-28 4-14 9-28 10-32 1-4 3-9 4-11 1-2 2-5 2-7 1-2 2-5 3-7 1-3 2-8 3-11 1-4 3-7 3-8 2-7 7-21 7-22 1-1 2-5 3-8 1-3 2-7 2-8 1-1 3-8 6-16l5-15-5-14c-3-8-5-15-6-16 0-2-11-35-12-38-1-2-12-35-15-43-1-3-3-9-4-12-1-4-3-9-3-11-3-7-5-14-6-16-1-3-3-10-6-18-1-4-3-10-4-13-4-13-5-16-6-22-1-3-1-5 0-7 2-9 7-15 15-19 4-2 12-2 18 0 4 1 12 5 18 7 7 4 17 8 18 8 0 0 2 1 4 2 1 1 5 2 6 3 2 1 5 2 7 3 3 1 5 3 6 3 1 1 4 2 6 3 3 1 5 2 5 2 0 0 3 1 12 5 4 2 9 4 11 5 2 1 4 2 7 3 2 1 4 2 4 2 0 0 2 1 4 2 3 1 13 6 24 11 11 5 22 10 24 11 3 1 5 2 5 2 0 0 3 1 6 2 3 2 6 3 6 3 1 1 3 2 6 3 2 1 4 2 5 2 0 0 2 1 5 3 3 1 6 2 6 2 0 0 2 1 4 2 3 1 14 6 24 11 11 5 22 10 24 10 2 1 5 3 7 3 2 1 6 3 8 4 3 2 6 3 7 3 2 1 8 4 11 5 4 2 14 7 17 8 7 3 12 5 12 5 0 0 2 1 6 3 2 1 5 2 5 2 0 0 3 2 6 3 3 1 5 3 6 3 0 0 3 1 7 3 4 1 9 4 12 5 2 1 9 4 15 7 9 4 17 8 22 10 1 0 4 2 7 3 2 1 5 2 5 2 0 0 2 1 5 3 3 1 6 2 6 2 0 0 2 1 5 2 2 2 6 3 9 4 2 1 6 3 8 4 2 1 7 3 10 5 15 6 24 11 28 16 1 1 5 8 5 9 0 0 0 1 1 2 1 1 1 2 1 4 0 3 0 4-1 5-1 1-1 1-1 2 0 1-2 6-4 8-3 4-11 9-24 15-2 1-4 2-6 2-1 1-3 2-5 3-2 1-5 2-6 2-1 1-4 2-6 3-1 1-4 2-5 3-2 0-8 3-14 6-21 9-24 11-27 12-3 1-8 4-19 8-3 2-7 4-9 5-3 1-5 2-5 2 0 0-2 1-5 2-3 2-6 3-6 3 0 0-3 1-7 3-16 7-26 12-31 14-3 1-8 3-12 5-4 2-7 3-7 3 0 0-3 1-6 3-3 1-5 2-5 2 0 0-3 2-6 3-3 1-6 2-6 2 0 0-2 2-5 3-3 1-6 3-8 3-1 1-4 2-5 3-2 1-4 2-6 2-6 3-7 4-10 5-2 1-5 2-6 3-2 0-5 2-8 3-2 1-5 2-5 2 0 0-3 2-7 4-7 3-11 5-23 10-14 6-18 8-21 9-1 1-3 2-4 2-2 1-4 2-6 3-2 1-5 2-7 3-2 1-4 2-4 2 0 0-2 1-5 2-3 1-6 3-7 3-1 1-3 2-5 2-1 1-6 3-9 5-4 1-9 4-12 5-15 7-35 16-39 18-3 1-8 3-11 4-2 2-5 3-6 3-1 0-3 2-6 3-2 1-4 2-5 2 0 0-1 1-2 1-2 1-4 2-6 3-2 1-5 2-6 2-1 1-3 2-4 2-8 4-17 5-21 4z m15-29c2-1 6-3 9-4 2-1 6-3 8-4 3-1 7-3 10-4 3-2 5-3 6-3 0 0 1 0 3-1 8-4 12-6 12-6 0 0 3-1 6-2 2-2 5-3 5-3 0 0 3-1 6-2 3-2 5-3 6-3 0 0 2-1 5-2 3-2 6-3 6-3 0 0 3-1 6-3 3-1 5-2 5-2 0 0 2-1 4-2 8-3 13-6 17-8 2-1 8-3 11-5 4-1 9-4 12-5 2-1 6-2 8-4 3-1 5-2 5-2 0 0 3-1 5-2 3-1 6-3 8-3 5-3 7-4 10-5 2-1 5-2 6-3 1 0 4-1 6-2 1-1 9-5 17-8 8-4 17-8 21-10 4-1 7-3 7-3 0 0 2-1 5-2 3-2 6-3 6-3 0 0 3-1 6-2 3-2 5-3 6-3 0 0 11-5 18-8 2-1 4-2 4-2 1 0 2-1 5-2 7-4 18-8 18-8 0 0 3-1 6-3 3-1 5-2 5-2 1 0 3-1 5-3 3-1 10-4 16-7 11-5 14-6 20-9 3-1 5-2 5-2 0 0 2-1 4-2 3-1 5-2 6-3 2 0 7-3 13-5 2-1 6-3 10-5 2 0 5-2 8-3 2-1 4-2 4-2 1 0 3-1 5-2 4-2 25-12 37-17 7-3 7-4 2-6-2-1-5-3-7-3-1-1-3-2-5-3-1 0-5-2-7-3-3-1-5-2-5-2 0 0-3-1-5-2-3-2-7-3-9-4-2-1-7-3-10-5-4-2-9-4-12-5-6-3-14-6-23-11-3-1-8-3-11-5-3-1-7-3-9-3-2-2-5-3-6-3-1-1-5-3-8-4-3-1-6-3-6-3 0 0-2 0-4-1-2-1-4-2-5-3-4-2-6-2-12-5-3-1-5-3-5-3 0 0-3 0-5-2-2-1-6-3-9-4-2-1-7-3-11-5-4-1-9-4-11-5-3-1-6-2-9-3-6-3-8-4-12-6-2-1-4-2-5-2-2-1-4-2-5-3-2 0-4-1-6-2-2-1-4-2-6-3-1 0-4-2-7-3-3-1-5-3-5-3 0 0-3-1-5-2-3-1-7-3-9-4-6-2-16-7-20-9-2-1-4-2-4-2-1 0-3-1-6-2-3-1-7-3-10-5-2-1-6-3-9-4-2-1-6-2-8-3-2-1-5-2-7-3-2-2-6-3-7-4-2 0-4-1-6-2-2-1-4-2-5-2-1-1-4-2-6-3-2-1-5-2-5-2 0 0-2-1-4-2-10-5-14-7-15-7 0 0-11-5-18-8-2-1-4-2-4-2 0 0-4-1-7-3-4-2-8-4-10-4-1-1-4-2-6-3-1-1-4-2-5-3-1 0-5-2-7-3-3-1-6-2-6-2 0 0-1-1-3-2-10-4-13-6-13-6-1 0-2 0-2 0-2-2-5-2-5-1 0 0 4 14 5 18 1 0 4 9 7 18 3 10 6 18 6 19 0 0 4 13 9 27 5 15 9 28 10 29 0 1 2 6 3 10 15 44 23 69 24 70 1 0 30 0 66 0 49 0 65 1 68 1 4 1 8 5 9 9 1 3 1 4 0 7-1 4-5 7-8 8-1 1-22 1-68 1-64 0-66 0-67 1-1 1-3 7-6 14-2 7-4 14-5 15 0 1-30 91-41 126-3 9-6 17-7 18-1 4-5 17-5 18 0 1 3 0 8-2z"/>
<glyph glyph-name="icon-60" unicode="&#55;" d="M189 486c0 0-3-1-6-1-18-3-23-5-35-11-24-11-42-31-52-54-4-9-4-10-5-14-1-2-1-5-2-6-1-5-2-16-2-23 0-24 7-45 22-66 3-5 10-12 17-17 28-24 64-32 100-22 10 3 23 9 33 16 5 4 14 12 18 16 1 1 3 4 4 5 7 8 15 24 19 37 6 20 6 47-2 67-9 26-28 47-52 60-4 2-8 4-9 5-7 2-15 4-19 5-10 2-12 2-15 3-3 0-12 0-14 0z m17-25c7-1 10-2 17-4 23-8 41-25 51-48 5-12 7-27 6-40-3-30-20-55-47-68-13-7-30-10-44-9-20 3-34 9-49 21-20 18-31 44-29 71 1 10 3 16 6 24 8 20 24 37 43 45 10 5 15 6 25 8 8 0 13 0 21 0z m129 16c-4-2-6-6-6-10 0-6 3-10 9-12 1-1 4-3 6-4 11-6 21-14 29-25 6-8 12-21 14-33 2-9 2-26 0-33-1-7-3-12-3-12 0 0-1-1-1-1 0-2-5-12-7-16-10-14-23-26-38-32-6-3-9-7-9-12 0-6 4-10 9-12 4-1 6 0 14 4 28 13 48 37 57 67 1 3 2 7 2 8 0 1 1 3 1 5 1 5 1 31 0 37-2 8-3 13-6 20-1 3-5 12-7 14-8 14-18 25-29 33-7 6-9 7-18 11-8 5-12 5-17 3z m-207-282c-23 0-40-2-52-6-4-1-15-6-18-7-1-1-2-2-2-2-1 0-10-6-15-10-16-14-29-34-34-52-4-15-4-23-4-56l0-28 1-2c1-1 3-3 4-4 2-1 3-2 6-2 5 0 7 1 9 4 3 4 3 4 4 33 0 38 1 45 7 59 9 20 31 40 51 45 14 4 28 4 107 4 36 0 66 0 67 1 3 0 6 3 8 5 1 3 1 4 1 7 0 4-1 5-2 6-1 2-3 3-5 4l-2 1-62 0c-33 0-64 0-69 0z m294 0c-3-1-6-3-7-7l-2-2 0-32 0-31-64 0-3-2c-6-5-7-13-1-19 3-3 2-3 36-4l32 0 0-31 0-32 2-2c3-7 12-9 18-4 4 4 4 2 4 38l1 31 31 0c35 1 34 1 37 4 3 3 4 5 4 9 0 3-1 4-2 6-4 6-2 6-38 6-18 0-32 0-32 0 0 0 0 14-1 32l0 31-1 3c-3 5-9 7-14 6z"/>
<glyph glyph-name="icon-61" unicode="&#56;" d="M436 511c0 0-2-1-5-2-8-2-11-3-17-5-6-3-9-5-14-9-6-5-241-241-245-246-5-7-9-14-11-24-1-4-1-5-1-38l0-34 1-2c2-4 5-7 8-8l3-2 31 0c27 0 32 0 36 1 11 2 19 6 28 12 4 3 238 236 245 244 7 9 13 20 15 32 0 2 1 3 1 2 1 0 1 3 1 11 0 7 0 10-1 10 0 0-1 1-1 2-3 17-13 33-28 43-8 6-16 9-29 12-1 0-1 1-1 1 0 1-2 1-8 1-7 0-8 0-8-1z m13-37c12-2 22-11 26-22 1-5 1-14 0-18-1-4-3-6-5-10-3-4-238-239-242-242-7-5-8-5-29-5-14-1-19-1-20 0-2 1-2 1-2 18 0 23 1 26 7 34 4 4 235 235 239 239 7 5 18 8 26 6z m-357-14c-1 0-5-1-9-1-19-2-30-5-44-14-10-7-17-14-24-25-5-7-9-16-11-24-4-17-4-23-4-166 0-143 0-148 4-165 2-9 5-17 11-26 14-21 35-35 60-38 7-1 297-1 306 0 16 1 27 5 38 11 8 5 21 17 26 25 11 17 15 29 16 59 1 22 1 133 0 137-2 6-5 11-11 13-3 2-11 2-14 0-4-2-6-5-8-8l-2-4-1-74c0-73 0-79-2-87-3-15-17-30-32-35-11-3-20-3-173-3-131 0-132 0-139 1-8 2-11 3-15 5-9 5-16 12-21 19-4 8-5 13-7 27-1 12-1 272 0 284 1 12 3 22 5 24 1 1 1 2 2 3 6 11 18 21 30 24 10 2 8 2 86 2 81 1 76 1 81 4 7 4 10 12 8 19-1 2-2 4-2 5-2 3-6 6-9 7l-3 1-70 0c-38 0-71 0-72 0z"/>
<glyph glyph-name="icon-62" unicode="&#57;" d="M232 509c-17-2-36-6-45-9-1 0-4-1-6-1-22-7-48-20-68-34-29-19-56-47-73-76 0 0-2-2-3-5-3-4-13-25-14-26 0-1-1-5-3-8-3-9-7-20-9-28-2-6-4-16-4-18-1-1-1-4-2-6-1-7-2-19-3-31-1-12 0-27 2-42 1-13 5-33 9-43 0-1 1-4 2-7 3-9 5-15 9-24 2-3 8-15 9-18 1-1 2-3 2-3 0-1 2-4 4-7 19-31 46-60 77-80 10-6 14-9 24-14 16-8 27-13 47-18 7-3 22-6 31-7 4-1 8-1 11-2 2 0 13-1 24-1 16 0 21 0 28 1 13 1 21 3 32 5 4 1 6 2 13 4 8 2 23 7 29 9 15 7 22 11 32 17 3 1 5 3 5 3 17 10 42 31 54 46 2 1 4 4 5 5 4 4 17 22 20 27 0 0 2 3 4 6 5 10 12 22 16 32 10 24 17 54 19 77 0 6 1 8 1 7 1 0 1 6 1 15 0 13 0 16-1 16 0 0-1 3-1 9-1 5-1 10-1 11-1 2-1 6-2 9-2 11-5 25-10 38-1 3-2 6-2 8-2 5-11 23-15 32-4 6-8 13-11 18-3 5-15 21-16 22 0 0-3 3-6 6-7 8-20 21-27 27-12 9-11 8-22 16-4 3-8 5-8 5 0 0-1 1-2 2-2 0-3 1-4 2 0 0-2 1-4 2-4 2-13 7-19 10-14 6-34 13-48 16-22 4-35 6-58 6-10 0-19-1-23-1z m47-46c9-2 21-4 29-6 52-13 96-45 125-91 2-3 3-5 4-6 0 0 0-2 1-3 8-13 18-38 21-55 1-2 2-5 2-6 2-8 4-29 4-40 0-12-2-31-4-40 0-1-1-5-2-8-4-21-15-46-27-65-17-25-37-46-62-62-4-3-7-5-8-5 0 0-1-1-2-2-6-3-21-10-29-13-10-4-23-8-32-9-3-1-6-2-8-2-8-1-23-3-35-3-47 0-92 16-129 45-11 9-22 20-30 29-2 3-4 5-4 6-3 3-13 16-14 19 0 0 0 1-1 2-1 1-1 2-2 3 0 1-2 3-3 6-1 2-3 5-4 7 0 1-1 3-2 6-2 4-6 12-7 17-1 2-2 4-2 5 0 1-1 3-1 5-1 2-2 5-2 6-2 6-4 16-5 27-2 10-2 41 0 51 2 14 4 26 6 32 1 1 1 2 1 4 1 4 4 11 8 19 2 6 11 24 12 25 0 1 2 3 3 5 2 3 10 15 13 18 9 12 17 20 25 27 9 8 26 20 35 25 9 5 18 9 30 15 4 1 16 5 23 7 8 1 20 4 30 5 8 1 35 1 43 0z m-28-93c-9-2-14-7-17-15-1-4-1-6-1-53 0-47 0-50 1-53 2-4 3-6 6-9 5-6 13-9 20-7 3 0 6 1 7 2 4 2 8 7 10 11l2 3 0 52c0 51 0 52-1 55-2 7-8 12-16 14-5 2-6 2-11 0z m1-184c-11-2-19-13-19-25 1-7 6-15 13-19 3-1 8-3 11-3 2 0 7 2 10 3 4 2 9 7 11 11 6 14-4 32-19 33-2 0-6 0-7 0z"/>
<glyph glyph-name="icon-63" unicode="&#33;" d="M251 510c-8-1-12-3-31-13-7-4-14-9-17-10-2-1-5-3-6-3-1-1-2-2-2-2 0 0-3-1-6-3-4-2-6-3-7-3 0 0-1-1-2-2-1 0-4-2-6-3-2-1-6-3-8-5-7-3-10-5-14-7-1-1-4-3-6-4-2-1-3-2-3-2-1 0-2 0-4-1-1-1-4-3-6-4-2-1-4-2-6-3-1-1-4-2-5-3-2-1-5-3-7-4-1-1-3-2-3-2 0 0-2 0-3-1-2-1-5-3-6-4-2-1-5-2-6-3-2-1-4-2-6-3-2-1-5-3-7-4-1-1-3-2-3-2 0 0-1 0-3-1-3-2-6-4-12-7-2-1-4-2-4-3-1 0-2-1-5-2-2-1-5-3-7-4-17-9-24-17-28-33l-2-5 0-218 2-4c1-3 1-5 1-5 0-1 1-3 2-5 5-10 11-16 25-23 3-2 6-3 7-4 3-2 20-11 24-13 2-1 6-4 10-6 3-2 8-4 11-6 2-1 5-3 6-4 2 0 4-1 5-2 1-1 7-4 14-8 7-4 14-8 16-9 1-1 5-3 7-4 3-1 5-2 5-3 1 0 2-1 3-1 2-1 8-5 16-9 1-1 5-3 7-4 7-4 10-5 14-7 2-2 4-3 4-3 0 0 2-1 4-2 3-2 6-4 9-5 7-4 9-5 14-8 2-1 5-3 6-3 8-5 15-7 23-7 11 0 14 1 36 14 7 3 14 7 16 9 3 1 5 2 7 3 1 1 2 1 2 1 0 0 3 2 6 4 4 2 6 3 7 3 0 0 1 1 2 2 1 0 4 2 6 3 2 1 6 3 8 5 4 2 7 3 14 7 2 1 4 2 4 3 1 0 3 1 5 2 2 1 6 3 8 5 2 1 6 3 7 4 2 1 5 2 8 4 3 1 6 4 9 5 2 1 4 2 4 2 1 1 2 2 4 3 2 1 5 2 6 3 2 1 4 2 6 3 2 1 5 3 7 4 1 1 3 2 3 2 0 0 1 0 3 1 3 2 6 4 12 7 2 1 4 2 4 2 0 1 3 2 5 3 9 5 11 6 16 9 10 7 15 14 19 27l1 6 0 217-1 5c-1 2-1 5-1 5 0 1-3 6-5 10-5 7-9 11-20 17-3 2-7 4-8 5-5 2-22 11-25 13-2 1-5 3-8 5-3 1-6 3-8 4-7 4-9 5-12 6-1 1-2 2-3 2 0 1-12 7-13 8-2 1-17 9-18 9 0 0-3 2-6 4-3 1-6 3-6 3-1 1-2 1-3 2-1 1-4 2-6 3-2 1-4 2-4 3-1 0-3 1-5 2-2 1-6 3-8 5-6 3-9 5-14 7-2 1-4 3-6 4-1 0-2 1-3 1 0 1-3 2-6 4-6 3-9 5-17 9-2 1-4 2-5 3-9 6-19 8-28 7z m8-37c1-1 3-2 3-2 1 0 7-4 13-7 17-9 17-10 31-17 7-4 14-8 15-9 28-15 35-19 38-21 2-1 3-1 4-2 0 0 2-1 5-3 2-1 5-3 6-3 13-7 15-9 15-9 1 0 2 0 3-1 1-1 4-2 7-4 2-1 5-3 6-3 1-1 3-2 5-3 1 0 2-1 3-2 0 0 2-1 5-3 3-1 6-3 8-4 1-1 4-2 5-3 2-1 2-2 1-3 0 0-56-31-70-39-1 0-3-1-3-2-1 0-3-1-5-2-2-1-7-4-12-7-4-2-9-5-11-6-2-1-4-2-4-2 0 0-2-2-4-3-2-1-5-2-7-3-6-3-9-5-12-7-1-1-3-1-3-1 0 0-3-2-7-5-5-2-8-4-8-4 0 0-4-2-8-4-4-3-7-5-8-5 0 0-2-1-4-2-2-1-6-3-7-4l-4-2-3 2c-2 1-4 2-5 3-1 0-4 2-6 3-3 2-6 3-7 4-1 1-3 2-5 2-1 1-2 2-3 2 0 1-3 2-6 4-2 1-6 3-7 4-1 0-3 1-5 2-2 1-5 3-10 6-4 2-5 3-9 5-3 1-5 3-7 4-1 0-3 1-4 2-2 1-6 3-11 6-5 3-5 3-10 6-2 1-4 2-5 2 0 1-2 2-4 3-3 1-6 3-7 4-2 1-4 2-5 2-1 1-2 2-4 2-1 1-4 3-6 4-2 1-4 2-5 2 0 1-1 2-10 6-2 1-3 2-4 2 0 1-2 2-4 3-2 1-6 3-8 4-2 1-4 2-4 3-1 0-4 2-9 5-3 1-4 2-4 3 0 0 2 1 4 3 3 1 6 3 8 4 1 1 4 2 7 4 3 1 5 2 5 3 1 0 5 2 10 5 2 1 4 2 4 3 1 0 3 1 5 2 4 3 12 7 16 9 1 1 4 2 6 4 3 1 6 3 7 3 1 1 2 2 2 2 0 0 3 1 6 3 3 2 6 3 7 3 0 1 2 1 3 2 1 1 3 2 6 4 2 1 5 2 5 2 0 1 2 2 4 2 3 2 8 5 12 7 1 1 3 2 4 2 8 5 10 6 15 9 3 2 6 3 6 3 0 0 1 1 2 1 2 2 5 3 14 8 2 1 4 2 4 2 1 1 8 5 11 7 4 1 5 1 8 0z m-197-131c3-1 5-2 5-2 0-1 2-2 4-3 2-1 25-14 31-17 6-3 27-15 30-17 2-1 9-5 16-8 14-9 16-9 26-15 8-5 9-5 19-11 4-2 7-3 7-3 0 0 1-1 2-2 2 0 4-2 6-3 3-1 6-3 9-5 4-2 6-3 14-8 2 0 4-2 5-2l1-1 0-99c0-78 0-99-1-99 0 0-19 10-41 23-23 12-42 23-43 23 0 0-1 1-2 2-1 0-4 2-7 3-2 2-5 3-6 4-2 1-4 2-5 3-2 1-5 2-7 3-2 1-3 2-4 2 0 0-1 1-2 2-1 0-4 2-6 3-4 2-7 4-13 7-1 1-3 2-4 3-6 3-9 4-9 5-1 0-3 1-5 3-3 1-6 3-8 4-1 1-3 2-4 2-1 1-3 1-3 2-1 0-3 1-5 2-1 1-3 3-4 3 0 1-1 13-1 100 0 53 1 98 1 98 0 0 0 0 4-2z m391-96c0-67 0-98 0-99-1-1-3-3-8-6-6-3-22-12-25-14-6-3-8-4-14-8-4-2-7-4-7-4-1 0-2 0-3-1-1-1-4-2-6-3-2-2-6-4-8-5-7-3-10-5-14-7-2-1-5-3-6-4-2-1-3-2-3-2 0 0-3-1-6-3-3-2-6-3-7-4 0 0-2-1-3-1-1-1-4-3-6-4-3-1-5-2-5-2 0-1-2-2-4-3-3-1-8-4-12-6-4-3-5-3-10-6-2-1-4-2-5-3 0 0-2-1-4-2-6-3-9-5-12-7-2-1-3-1-3-1-1 0-2-1-3-2-2-1-3-2-4-2l-1 0 0 198 1 1c1 0 3 2 5 3 2 1 5 2 6 3 2 1 4 2 6 3 2 1 5 3 7 4 1 1 3 2 3 2 0 0 1 0 3 1 1 1 4 3 6 4 5 2 9 5 12 6 3 2 3 2 10 6 2 1 4 2 5 2 0 1 2 2 4 3 1 1 4 2 6 3 2 1 4 2 4 2 0 1 2 2 5 3 2 1 5 3 6 4 1 0 4 2 5 2 1 1 3 2 4 3 1 0 4 2 6 3 2 1 4 2 5 2 0 1 2 2 5 3 6 4 7 4 9 6 4 2 9 4 12 6 2 1 4 2 4 3 1 0 3 1 5 2 2 1 7 4 11 6 5 3 10 6 11 7 2 0 5 2 6 3 4 2 6 3 7 3 0 0 0-20 0-98z"/>
</font>
</defs>
</svg>
